  0
SECTION
  2
HEADER
  9
$ACADVER
  1
AC1009
  9
$INSBASE
 10
0.0
 20
0.0
 30
0.0
  9
$EXTMIN
 10
1627.6218526929831114
 20
-4131.0420817716876627
 30
0.0
  9
$EXTMAX
 10
7256.6682916885411032
 20
1562.0129758922880683
 30
0.0
  9
$LIMMIN
 10
0.0
 20
0.0
  9
$LIMMAX
 10
420.0
 20
297.0
  9
$ORTHOMODE
 70
     1
  9
$REGENMODE
 70
     1
  9
$FILLMODE
 70
     1
  9
$QTEXTMODE
 70
     0
  9
$MIRRTEXT
 70
     0
  9
$DRAGMODE
 70
     2
  9
$LTSCALE
 40
1.0
  9
$OSMODE
 70
    37
  9
$ATTMODE
 70
     1
  9
$TEXTSIZE
 40
2.5
  9
$TRACEWID
 40
1.0
  9
$TEXTSTYLE
  7
STANDARD
  9
$CLAYER
  8
0
  9
$CELTYPE
  6
BYLAYER
  9
$CECOLOR
 62
   256
  9
$DIMSCALE
 40
1.0
  9
$DIMASZ
 40
15.0
  9
$DIMEXO
 40
0.625
  9
$DIMDLI
 40
3.75
  9
$DIMRND
 40
0.0
  9
$DIMDLE
 40
0.0
  9
$DIMEXE
 40
1.25
  9
$DIMTP
 40
0.0
  9
$DIMTM
 40
0.0
  9
$DIMTXT
 40
15.0
  9
$DIMCEN
 40
2.5
  9
$DIMTSZ
 40
0.0
  9
$DIMTOL
 70
     0
  9
$DIMLIM
 70
     0
  9
$DIMTIH
 70
     0
  9
$DIMTOH
 70
     1
  9
$DIMSE1
 70
     1
  9
$DIMSE2
 70
     1
  9
$DIMTAD
 70
     1
  9
$DIMZIN
 70
     8
  9
$DIMBLK
  1

  9
$DIMASO
 70
     1
  9
$DIMSHO
 70
     1
  9
$DIMPOST
  1
mm
  9
$DIMAPOST
  1

  9
$DIMALT
 70
     0
  9
$DIMALTD
 70
     3
  9
$DIMALTF
 40
0.03937007874016
  9
$DIMLFAC
 40
1.0
  9
$DIMTOFL
 70
     1
  9
$DIMTVP
 40
0.0
  9
$DIMTIX
 70
     0
  9
$DIMSOXD
 70
     0
  9
$DIMSAH
 70
     0
  9
$DIMBLK1
  1

  9
$DIMBLK2
  1

  9
$DIMSTYLE
  2
ISO-25
  9
$DIMCLRD
 70
     0
  9
$DIMCLRE
 70
     0
  9
$DIMCLRT
 70
     0
  9
$DIMTFAC
 40
1.0
  9
$DIMGAP
 40
10.0
  9
$LUNITS
 70
     2
  9
$LUPREC
 70
     4
  9
$SKETCHINC
 40
1.0
  9
$FILLETRAD
 40
11.5
  9
$AUNITS
 70
     0
  9
$AUPREC
 70
     0
  9
$MENU
  1
.
  9
$ELEVATION
 40
0.0
  9
$PELEVATION
 40
0.0
  9
$THICKNESS
 40
0.0
  9
$LIMCHECK
 70
     0
  9
$BLIPMODE
 70
     0
  9
$CHAMFERA
 40
0.0
  9
$CHAMFERB
 40
0.0
  9
$SKPOLY
 70
     0
  9
$TDCREATE
 40
2459158.7951157409697771
  9
$TDUPDATE
 40
2459841.8044675919227302
  9
$TDINDWG
 40
2.3483452199000001
  9
$TDUSRTIMER
 40
2.3483444907000002
  9
$USRTIMER
 70
     1
  9
$ANGBASE
 50
0.0
  9
$ANGDIR
 70
     0
  9
$PDMODE
 70
     0
  9
$PDSIZE
 40
0.0
  9
$PLINEWID
 40
0.0
  9
$COORDS
 70
     1
  9
$SPLFRAME
 70
     0
  9
$SPLINETYPE
 70
     6
  9
$SPLINESEGS
 70
     8
  9
$ATTDIA
 70
     1
  9
$ATTREQ
 70
     1
  9
$HANDLING
 70
     1
  9
$HANDSEED
  5
31F0
  9
$SURFTAB1
 70
     6
  9
$SURFTAB2
 70
     6
  9
$SURFTYPE
 70
     6
  9
$SURFU
 70
     6
  9
$SURFV
 70
     6
  9
$UCSNAME
  2

  9
$UCSORG
 10
0.0
 20
0.0
 30
0.0
  9
$UCSXDIR
 10
1.0
 20
0.0
 30
0.0
  9
$UCSYDIR
 10
0.0
 20
1.0
 30
0.0
  9
$PUCSNAME
  2

  9
$PUCSORG
 10
0.0
 20
0.0
 30
0.0
  9
$PUCSXDIR
 10
1.0
 20
0.0
 30
0.0
  9
$PUCSYDIR
 10
0.0
 20
1.0
 30
0.0
  9
$USERI1
 70
     0
  9
$USERI2
 70
     0
  9
$USERI3
 70
     0
  9
$USERI4
 70
     0
  9
$USERI5
 70
     0
  9
$USERR1
 40
0.0
  9
$USERR2
 40
0.0
  9
$USERR3
 40
0.0
  9
$USERR4
 40
0.0
  9
$USERR5
 40
0.0
  9
$WORLDVIEW
 70
     1
  9
$SHADEDGE
 70
     3
  9
$SHADEDIF
 70
    70
  9
$TILEMODE
 70
     1
  9
$MAXACTVP
 70
    64
  9
$PLIMCHECK
 70
     0
  9
$PEXTMIN
 10
0.0
 20
0.0
 30
0.0
  9
$PEXTMAX
 10
0.0
 20
0.0
 30
0.0
  9
$PLIMMIN
 10
0.0
 20
0.0
  9
$PLIMMAX
 10
12.0
 20
9.0
  9
$UNITMODE
 70
     0
  9
$VISRETAIN
 70
     1
  9
$PLINEGEN
 70
     0
  9
$PSLTSCALE
 70
     1
  0
ENDSEC
  0
SECTION
  2
TABLES
  0
TABLE
  2
VPORT
 70
     1
  0
VPORT
  2
*ACTIVE
 70
     0
 10
0.0
 20
0.0
 11
1.0
 21
1.0
 12
4605.395291410536629
 22
-3561.8103381662499487
 13
0.0
 23
0.0
 14
10.0
 24
10.0
 15
10.0
 25
10.0
 16
0.0
 26
0.0
 36
1.0
 17
0.0
 27
0.0
 37
0.0
 40
1820.3135906878269452
 41
1.4482758620689651
 42
50.0
 43
0.0
 44
0.0
 50
0.0
 51
0.0
 71
     0
 72
  1000
 73
     1
 74
     3
 75
     0
 76
     0
 77
     0
 78
     0
  0
ENDTAB
  0
TABLE
  2
LTYPE
 70
     3
  0
LTYPE
  2
CONTINUOUS
 70
     0
  3
Solid line
 72
    65
 73
     0
 40
0.0
  0
ENDTAB
  0
TABLE
  2
LAYER
 70
     2
  0
LAYER
  2
0
 70
     0
 62
     7
  6
CONTINUOUS
  0
LAYER
  2
DEFPOINTS
 70
     0
 62
     7
  6
CONTINUOUS
  0
ENDTAB
  0
TABLE
  2
STYLE
 70
     2
  0
STYLE
  2
STANDARD
 70
     0
 40
0.0
 41
1.0
 50
0.0
 71
     0
 42
2.5
  3
txt
  4

  0
STYLE
  2
ANNOTATIVE
 70
     0
 40
0.0
 41
1.0
 50
0.0
 71
     0
 42
0.2
  3
txt
  4

  0
ENDTAB
  0
TABLE
  2
VIEW
 70
     0
  0
ENDTAB
  0
TABLE
  2
UCS
 70
     0
  0
ENDTAB
  0
TABLE
  2
APPID
 70
     7
  0
APPID
  2
ACAD
 70
     0
  0
APPID
  2
ACADANNOTATIVE
 70
     0
  0
APPID
  2
ACAD_PSEXT
 70
     0
  0
APPID
  2
ACAD_EXEMPT_FROM_CAD_STANDARDS
 70
     0
  0
APPID
  2
ACAD_NAV_VCDISPLAY
 70
     0
  0
APPID
  2
Acad_TC
 70
     0
  0
APPID
  2
ACAD_MLEADERVER
 70
     0
  0
ENDTAB
  0
TABLE
  2
DIMSTYLE
 70
     4
  0
DIMSTYLE
  2
STANDARD
 70
     0
  3

  4

  5

  6

  7

 40
1.0
 41
15.0
 42
0.0625
 43
0.38
 44
0.18
 45
0.0
 46
0.0
 47
0.0
 48
0.0
140
20.0
141
0.09
142
0.0
143
25.3999999999999986
144
1.0
145
0.0
146
1.0
147
0.09
 71
     0
 72
     0
 73
     0
 74
     1
 75
     1
 76
     1
 77
     1
 78
     0
170
     0
171
     2
172
     0
173
     0
174
     0
175
     0
176
     0
177
     0
178
     0
  0
DIMSTYLE
  2
ANNOTATIVE
 70
     0
  3

  4

  5

  6

  7

 40
1.0
 41
0.18
 42
0.0625
 43
0.38
 44
0.18
 45
0.0
 46
0.0
 47
0.0
 48
0.0
140
0.18
141
0.09
142
0.0
143
25.3999999999999986
144
1.0
145
0.0
146
1.0
147
0.09
 71
     0
 72
     0
 73
     1
 74
     1
 75
     0
 76
     0
 77
     0
 78
     0
170
     0
171
     2
172
     0
173
     0
174
     0
175
     0
176
     0
177
     0
178
     0
  0
DIMSTYLE
  2
ISO-25
 70
     0
  3

  4

  5

  6

  7

 40
1.0
 41
15.0
 42
0.625
 43
3.75
 44
1.25
 45
0.0
 46
0.0
 47
0.0
 48
0.0
140
15.0
141
2.5
142
0.0
143
0.03937007874016
144
1.0
145
0.0
146
1.0
147
10.0
 71
     0
 72
     0
 73
     0
 74
     1
 75
     1
 76
     1
 77
     1
 78
     8
170
     0
171
     3
172
     1
173
     0
174
     0
175
     0
176
     0
177
     0
178
     0
  0
ENDTAB
  0
ENDSEC
  0
SECTION
  2
BLOCKS
  0
BLOCK
  8
0
  2
$MODEL_SPACE
 70
     0
 10
0.0
 20
0.0
 30
0.0
  3
$MODEL_SPACE
  1

  0
ENDBLK
  5
2CF8
  8
0
  0
BLOCK
 67
     1
  8
0
  2
$PAPER_SPACE
 70
     0
 10
0.0
 20
0.0
 30
0.0
  3
$PAPER_SPACE
  1

  0
ENDBLK
  5
2CF4
 67
     1
  8
0
  0
BLOCK
  8
0
  2
*D2
 70
     1
 10
0.0
 20
0.0
 30
0.0
  3
*D2
  1

  0
LINE
  5
111
  8
0
 62
     0
 10
3216.6734896723392012
 20
-246.4565008666573078
 30
0.0
 11
3726.0734896723388374
 21
-246.4565008666573078
 31
0.0
  0
SOLID
  5
112
  8
0
 62
     0
 10
3216.6734896723392012
 20
-243.9565008666573078
 30
0.0
 11
3216.6734896723392012
 21
-248.9565008666573078
 31
0.0
 12
3201.6734896723392012
 22
-246.4565008666573078
 32
0.0
 13
3201.6734896723392012
 23
-246.4565008666573078
 33
0.0
  0
SOLID
  5
113
  8
0
 62
     0
 10
3726.0734896723388374
 20
-243.9565008666573078
 30
0.0
 11
3726.0734896723388374
 21
-248.9565008666573078
 31
0.0
 12
3741.0734896723379279
 22
-246.4565008666573078
 32
0.0
 13
3741.0734896723379279
 23
-246.4565008666573078
 33
0.0
  0
INSERT
  5
114
  8
0
  2
*U3
 10
0.0
 20
0.0
 30
0.0
  0
POINT
  5
115
  8
DEFPOINTS
 62
     0
 10
3201.6734896723392012
 20
-312.6618360432470922
 30
0.0
  0
POINT
  5
116
  8
DEFPOINTS
 62
     0
 10
3741.0734896723379279
 20
-312.6618360432470922
 30
0.0
  0
POINT
  5
117
  8
DEFPOINTS
 62
     0
 10
3741.0734896723379279
 20
-246.4565008666573078
 30
0.0
  0
ENDBLK
  5
118
  8
0
  0
BLOCK
  8
0
  2
*U3
 70
     1
 10
0.0
 20
0.0
 30
0.0
  3
*U3
  1

  0
TEXT
  5
98F
  8
0
 62
     0
 10
3425.1234896723390193
 20
-233.9565008666573078
 30
0.0
 40
15.0
  1
539,4mm
  0
ENDBLK
  5
991
  8
0
  0
BLOCK
  8
0
  2
*D4
 70
     1
 10
0.0
 20
0.0
 30
0.0
  3
*D4
  1

  0
LINE
  5
11B
  8
0
 62
     0
 10
3218.173489672337837
 20
-282.4657061713288044
 30
0.0
 11
3724.5734896723388374
 21
-282.4657061713288044
 31
0.0
  0
SOLID
  5
11C
  8
0
 62
     0
 10
3218.173489672337837
 20
-279.9657061713288044
 30
0.0
 11
3218.173489672337837
 21
-284.9657061713286907
 31
0.0
 12
3203.1734896723392012
 22
-282.4657061713288044
 32
0.0
 13
3203.1734896723392012
 23
-282.4657061713288044
 33
0.0
  0
SOLID
  5
11D
  8
0
 62
     0
 10
3724.5734896723388374
 20
-279.9657061713288044
 30
0.0
 11
3724.5734896723388374
 21
-284.9657061713286907
 31
0.0
 12
3739.5734896723379279
 22
-282.4657061713288044
 32
0.0
 13
3739.5734896723379279
 23
-282.4657061713288044
 33
0.0
  0
INSERT
  5
11E
  8
0
  2
*U5
 10
0.0
 20
0.0
 30
0.0
  0
POINT
  5
11F
  8
DEFPOINTS
 62
     0
 10
3203.1734896723392012
 20
-314.1618360432472059
 30
0.0
  0
POINT
  5
120
  8
DEFPOINTS
 62
     0
 10
3739.5734896723379279
 20
-314.1618360432472059
 30
0.0
  0
POINT
  5
121
  8
DEFPOINTS
 62
     0
 10
3739.5734896723379279
 20
-282.4657061713288044
 30
0.0
  0
ENDBLK
  5
122
  8
0
  0
BLOCK
  8
0
  2
*U5
 70
     1
 10
0.0
 20
0.0
 30
0.0
  3
*U5
  1

  0
TEXT
  5
993
  8
0
 62
     0
 10
3425.1234896723381098
 20
-269.9657061713288044
 30
0.0
 40
15.0
  1
536,4mm
  0
ENDBLK
  5
995
  8
0
  0
BLOCK
  8
0
  2
*D6
 70
     1
 10
0.0
 20
0.0
 30
0.0
  3
*D6
  1

  0
LINE
  5
125
  8
0
 62
     0
 10
3183.5781357197088255
 20
-329.1618360432470922
 30
0.0
 11
3183.5781357197088255
 21
-708.5618360432471263
 31
0.0
  0
SOLID
  5
126
  8
0
 62
     0
 10
3181.0781357197088255
 20
-329.1618360432470922
 30
0.0
 11
3186.078135719707916
 21
-329.1618360432470922
 31
0.0
 12
3183.5781357197088255
 22
-314.1618360432470922
 32
0.0
 13
3183.5781357197088255
 23
-314.1618360432470922
 33
0.0
  0
SOLID
  5
127
  8
0
 62
     0
 10
3181.0781357197088255
 20
-708.5618360432471263
 30
0.0
 11
3186.078135719707916
 21
-708.5618360432471263
 31
0.0
 12
3183.5781357197088255
 22
-723.5618360432471263
 32
0.0
 13
3183.5781357197088255
 23
-723.5618360432471263
 33
0.0
  0
INSERT
  5
128
  8
0
  2
*U7
 10
0.0
 20
0.0
 30
0.0
  0
POINT
  5
129
  8
DEFPOINTS
 62
     0
 10
3203.1734896723392012
 20
-314.1618360432472059
 30
0.0
  0
POINT
  5
12A
  8
DEFPOINTS
 62
     0
 10
3203.1734896723392012
 20
-723.5618360432471263
 30
0.0
  0
POINT
  5
12B
  8
DEFPOINTS
 62
     0
 10
3183.5781357197088255
 20
-723.5618360432471263
 30
0.0
  0
ENDBLK
  5
12C
  8
0
  0
BLOCK
  8
0
  2
*U7
 70
     1
 10
0.0
 20
0.0
 30
0.0
  3
*U7
  1

  0
TEXT
  5
997
  8
0
 62
     0
 10
3171.0781357197070065
 20
-563.8618360432465124
 30
0.0
 40
15.0
  1
409,4mm
 50
90.0
  0
ENDBLK
  5
999
  8
0
  0
BLOCK
  8
0
  2
*D8
 70
     1
 10
0.0
 20
0.0
 30
0.0
  3
*D8
  1

  0
LINE
  5
12F
  8
0
 62
     0
 10
3139.4406780384151716
 20
-327.6618360432470922
 30
0.0
 11
3139.4406780384151716
 21
-710.0618360432471263
 31
0.0
  0
SOLID
  5
130
  8
0
 62
     0
 10
3136.9406780384138074
 20
-327.6618360432470922
 30
0.0
 11
3141.9406780384151716
 21
-327.6618360432470922
 31
0.0
 12
3139.4406780384151716
 22
-312.6618360432469785
 32
0.0
 13
3139.4406780384151716
 23
-312.6618360432469785
 33
0.0
  0
SOLID
  5
131
  8
0
 62
     0
 10
3136.9406780384138074
 20
-710.0618360432471263
 30
0.0
 11
3141.9406780384151716
 21
-710.0618360432471263
 31
0.0
 12
3139.4406780384151716
 22
-725.0618360432471263
 32
0.0
 13
3139.4406780384151716
 23
-725.0618360432471263
 33
0.0
  0
INSERT
  5
132
  8
0
  2
*U9
 10
0.0
 20
0.0
 30
0.0
  0
POINT
  5
133
  8
DEFPOINTS
 62
     0
 10
3201.6734896723392012
 20
-312.6618360432470922
 30
0.0
  0
POINT
  5
134
  8
DEFPOINTS
 62
     0
 10
3201.6734896723392012
 20
-725.0618360432471263
 30
0.0
  0
POINT
  5
135
  8
DEFPOINTS
 62
     0
 10
3139.4406780384151716
 20
-725.0618360432471263
 30
0.0
  0
ENDBLK
  5
136
  8
0
  0
BLOCK
  8
0
  2
*U9
 70
     1
 10
0.0
 20
0.0
 30
0.0
  3
*U9
  1

  0
TEXT
  5
99B
  8
0
 62
     0
 10
3126.9406780384151716
 20
-562.6118360432465124
 30
0.0
 40
15.0
  1
412,4mm
 50
90.0
  0
ENDBLK
  5
99D
  8
0
  0
BLOCK
  8
0
  2
*D10
 70
     1
 10
0.0
 20
0.0
 30
0.0
  3
*D10
  1

  0
LINE
  5
220
  8
0
 62
     0
 10
1803.4854361108950798
 20
1457.0755933241150615
 30
0.0
 11
2312.8854361108951707
 21
1457.0755933241150615
 31
0.0
  0
SOLID
  5
221
  8
0
 62
     0
 10
1803.4854361108950798
 20
1459.5755933241150615
 30
0.0
 11
1803.4854361108950798
 21
1454.5755933241150615
 31
0.0
 12
1788.4854361108950798
 22
1457.0755933241150615
 32
0.0
 13
1788.4854361108950798
 23
1457.0755933241150615
 33
0.0
  0
SOLID
  5
222
  8
0
 62
     0
 10
2312.8854361108951707
 20
1459.5755933241150615
 30
0.0
 11
2312.8854361108951707
 21
1454.5755933241150615
 31
0.0
 12
2327.8854361108951707
 22
1457.0755933241150615
 32
0.0
 13
2327.8854361108951707
 23
1457.0755933241150615
 33
0.0
  0
INSERT
  5
223
  8
0
  2
*U11
 10
0.0
 20
0.0
 30
0.0
  0
POINT
  5
224
  8
DEFPOINTS
 62
     0
 10
1788.4854361108950798
 20
1390.8702581475249644
 30
0.0
  0
POINT
  5
225
  8
DEFPOINTS
 62
     0
 10
2327.8854361108951707
 20
1390.8702581475249644
 30
0.0
  0
POINT
  5
226
  8
DEFPOINTS
 62
     0
 10
2327.8854361108951707
 20
1457.0755933241150615
 30
0.0
  0
ENDBLK
  5
1C3
  8
0
  0
BLOCK
  8
0
  2
*U11
 70
     1
 10
0.0
 20
0.0
 30
0.0
  3
*U11
  1

  0
TEXT
  5
9E6
  8
0
 62
     0
 10
2011.9354361108948979
 20
1469.5755933241150615
 30
0.0
 40
15.0
  1
539,4mm
  0
ENDBLK
  5
9E8
  8
0
  0
BLOCK
  8
0
  2
*D12
 70
     1
 10
0.0
 20
0.0
 30
0.0
  3
*D12
  1

  0
LINE
  5
227
  8
0
 62
     0
 10
1804.9854361108930334
 20
1421.066388019444048
 30
0.0
 11
2311.3854361108951707
 21
1421.066388019444048
 31
0.0
  0
SOLID
  5
228
  8
0
 62
     0
 10
1804.9854361108930334
 20
1423.566388019444048
 30
0.0
 11
1804.9854361108930334
 21
1418.566388019444048
 31
0.0
 12
1789.9854361108939429
 22
1421.066388019444048
 32
0.0
 13
1789.9854361108939429
 23
1421.066388019444048
 33
0.0
  0
SOLID
  5
229
  8
0
 62
     0
 10
2311.3854361108951707
 20
1423.566388019444048
 30
0.0
 11
2311.3854361108951707
 21
1418.566388019444048
 31
0.0
 12
2326.3854361108951707
 22
1421.066388019444048
 32
0.0
 13
2326.3854361108951707
 23
1421.066388019444048
 33
0.0
  0
INSERT
  5
22A
  8
0
  2
*U13
 10
0.0
 20
0.0
 30
0.0
  0
POINT
  5
22B
  8
DEFPOINTS
 62
     0
 10
1789.9854361108939429
 20
1389.3702581475249644
 30
0.0
  0
POINT
  5
22C
  8
DEFPOINTS
 62
     0
 10
2326.3854361108951707
 20
1389.3702581475249644
 30
0.0
  0
POINT
  5
22D
  8
DEFPOINTS
 62
     0
 10
2326.3854361108951707
 20
1421.066388019444048
 30
0.0
  0
ENDBLK
  5
1CF
  8
0
  0
BLOCK
  8
0
  2
*U13
 70
     1
 10
0.0
 20
0.0
 30
0.0
  3
*U13
  1

  0
TEXT
  5
9EA
  8
0
 62
     0
 10
2011.9354361108939884
 20
1433.566388019444048
 30
0.0
 40
15.0
  1
536,4mm
  0
ENDBLK
  5
9EC
  8
0
  0
BLOCK
  8
0
  2
*D14
 70
     1
 10
0.0
 20
0.0
 30
0.0
  3
*D14
  1

  0
LINE
  5
22E
  8
0
 62
     0
 10
1770.3900821582640219
 20
1374.3702581475249644
 30
0.0
 11
1770.3900821582640219
 21
994.9702581475252146
 31
0.0
  0
SOLID
  5
22F
  8
0
 62
     0
 10
1767.8900821582631124
 20
1374.3702581475249644
 30
0.0
 11
1772.8900821582640219
 21
1374.3702581475249644
 31
0.0
 12
1770.3900821582640219
 22
1389.3702581475249644
 32
0.0
 13
1770.3900821582640219
 23
1389.3702581475249644
 33
0.0
  0
SOLID
  5
230
  8
0
 62
     0
 10
1767.8900821582631124
 20
994.9702581475252146
 30
0.0
 11
1772.8900821582640219
 21
994.9702581475252146
 31
0.0
 12
1770.3900821582640219
 22
979.9702581475256693
 32
0.0
 13
1770.3900821582640219
 23
979.9702581475256693
 33
0.0
  0
INSERT
  5
231
  8
0
  2
*U15
 10
0.0
 20
0.0
 30
0.0
  0
POINT
  5
232
  8
DEFPOINTS
 62
     0
 10
1789.9854361108939429
 20
1389.3702581475249644
 30
0.0
  0
POINT
  5
233
  8
DEFPOINTS
 62
     0
 10
1789.9854361108939429
 20
979.9702581475256693
 30
0.0
  0
POINT
  5
234
  8
DEFPOINTS
 62
     0
 10
1770.3900821582640219
 20
979.9702581475256693
 30
0.0
  0
ENDBLK
  5
1DB
  8
0
  0
BLOCK
  8
0
  2
*U15
 70
     1
 10
0.0
 20
0.0
 30
0.0
  3
*U15
  1

  0
TEXT
  5
9EE
  8
0
 62
     0
 10
1757.8900821582631124
 20
1139.6702581475260558
 30
0.0
 40
15.0
  1
409,4mm
 50
90.0
  0
ENDBLK
  5
9F0
  8
0
  0
BLOCK
  8
0
  2
*D16
 70
     1
 10
0.0
 20
0.0
 30
0.0
  3
*D16
  1

  0
LINE
  5
235
  8
0
 62
     0
 10
1726.2526244769699133
 20
1375.8702581475249644
 30
0.0
 11
1726.2526244769699133
 21
993.4702581475255556
 31
0.0
  0
SOLID
  5
236
  8
0
 62
     0
 10
1723.7526244769699133
 20
1375.8702581475249644
 30
0.0
 11
1728.7526244769699133
 21
1375.8702581475249644
 31
0.0
 12
1726.2526244769699133
 22
1390.8702581475249644
 32
0.0
 13
1726.2526244769699133
 23
1390.8702581475249644
 33
0.0
  0
SOLID
  5
237
  8
0
 62
     0
 10
1723.7526244769699133
 20
993.4702581475255556
 30
0.0
 11
1728.7526244769699133
 21
993.4702581475255556
 31
0.0
 12
1726.2526244769699133
 22
978.4702581475254419
 32
0.0
 13
1726.2526244769699133
 23
978.4702581475254419
 33
0.0
  0
INSERT
  5
238
  8
0
  2
*U17
 10
0.0
 20
0.0
 30
0.0
  0
POINT
  5
239
  8
DEFPOINTS
 62
     0
 10
1788.4854361108950798
 20
1390.8702581475249644
 30
0.0
  0
POINT
  5
23A
  8
DEFPOINTS
 62
     0
 10
1788.4854361108939429
 20
978.4702581475254419
 30
0.0
  0
POINT
  5
23B
  8
DEFPOINTS
 62
     0
 10
1726.2526244769699133
 20
978.4702581475254419
 30
0.0
  0
ENDBLK
  5
1E7
  8
0
  0
BLOCK
  8
0
  2
*U17
 70
     1
 10
0.0
 20
0.0
 30
0.0
  3
*U17
  1

  0
TEXT
  5
9F2
  8
0
 62
     0
 10
1713.7526244769699133
 20
1140.920258147524919
 30
0.0
 40
15.0
  1
412,4mm
 50
90.0
  0
ENDBLK
  5
9F4
  8
0
  0
BLOCK
  8
0
  2
*D18
 70
     1
 10
0.0
 20
0.0
 30
0.0
  3
*D18
  1

  0
LINE
  5
23E
  8
0
 62
     0
 10
1803.4854361108950798
 20
1457.0755933241150615
 30
0.0
 11
2312.8854361108951707
 21
1457.0755933241150615
 31
0.0
  0
SOLID
  5
23F
  8
0
 62
     0
 10
1803.4854361108950798
 20
1459.5755933241150615
 30
0.0
 11
1803.4854361108950798
 21
1454.5755933241150615
 31
0.0
 12
1788.4854361108950798
 22
1457.0755933241150615
 32
0.0
 13
1788.4854361108950798
 23
1457.0755933241150615
 33
0.0
  0
SOLID
  5
240
  8
0
 62
     0
 10
2312.8854361108951707
 20
1459.5755933241150615
 30
0.0
 11
2312.8854361108951707
 21
1454.5755933241150615
 31
0.0
 12
2327.8854361108951707
 22
1457.0755933241150615
 32
0.0
 13
2327.8854361108951707
 23
1457.0755933241150615
 33
0.0
  0
INSERT
  5
241
  8
0
  2
*U19
 10
0.0
 20
0.0
 30
0.0
  0
POINT
  5
242
  8
DEFPOINTS
 62
     0
 10
1788.4854361108950798
 20
1390.8702581475249644
 30
0.0
  0
POINT
  5
243
  8
DEFPOINTS
 62
     0
 10
2327.8854361108951707
 20
1390.8702581475249644
 30
0.0
  0
POINT
  5
244
  8
DEFPOINTS
 62
     0
 10
2327.8854361108951707
 20
1457.0755933241150615
 30
0.0
  0
ENDBLK
  5
245
  8
0
  0
BLOCK
  8
0
  2
*U19
 70
     1
 10
0.0
 20
0.0
 30
0.0
  3
*U19
  1

  0
TEXT
  5
9F6
  8
0
 62
     0
 10
2011.9354361108948979
 20
1469.5755933241150615
 30
0.0
 40
15.0
  1
539,4mm
  0
ENDBLK
  5
9F8
  8
0
  0
BLOCK
  8
0
  2
*D20
 70
     1
 10
0.0
 20
0.0
 30
0.0
  3
*D20
  1

  0
LINE
  5
248
  8
0
 62
     0
 10
1804.9854361108930334
 20
1421.066388019444048
 30
0.0
 11
2311.3854361108951707
 21
1421.066388019444048
 31
0.0
  0
SOLID
  5
249
  8
0
 62
     0
 10
1804.9854361108930334
 20
1423.566388019444048
 30
0.0
 11
1804.9854361108930334
 21
1418.566388019444048
 31
0.0
 12
1789.9854361108939429
 22
1421.066388019444048
 32
0.0
 13
1789.9854361108939429
 23
1421.066388019444048
 33
0.0
  0
SOLID
  5
24A
  8
0
 62
     0
 10
2311.3854361108951707
 20
1423.566388019444048
 30
0.0
 11
2311.3854361108951707
 21
1418.566388019444048
 31
0.0
 12
2326.3854361108951707
 22
1421.066388019444048
 32
0.0
 13
2326.3854361108951707
 23
1421.066388019444048
 33
0.0
  0
INSERT
  5
24B
  8
0
  2
*U21
 10
0.0
 20
0.0
 30
0.0
  0
POINT
  5
24C
  8
DEFPOINTS
 62
     0
 10
1789.9854361108939429
 20
1389.3702581475249644
 30
0.0
  0
POINT
  5
24D
  8
DEFPOINTS
 62
     0
 10
2326.3854361108951707
 20
1389.3702581475249644
 30
0.0
  0
POINT
  5
24E
  8
DEFPOINTS
 62
     0
 10
2326.3854361108951707
 20
1421.066388019444048
 30
0.0
  0
ENDBLK
  5
24F
  8
0
  0
BLOCK
  8
0
  2
*U21
 70
     1
 10
0.0
 20
0.0
 30
0.0
  3
*U21
  1

  0
TEXT
  5
9FA
  8
0
 62
     0
 10
2011.9354361108939884
 20
1433.566388019444048
 30
0.0
 40
15.0
  1
536,4mm
  0
ENDBLK
  5
9FC
  8
0
  0
BLOCK
  8
0
  2
*D22
 70
     1
 10
0.0
 20
0.0
 30
0.0
  3
*D22
  1

  0
LINE
  5
252
  8
0
 62
     0
 10
1770.3900821582640219
 20
1374.3702581475249644
 30
0.0
 11
1770.3900821582640219
 21
994.9702581475252146
 31
0.0
  0
SOLID
  5
253
  8
0
 62
     0
 10
1767.8900821582631124
 20
1374.3702581475249644
 30
0.0
 11
1772.8900821582640219
 21
1374.3702581475249644
 31
0.0
 12
1770.3900821582640219
 22
1389.3702581475249644
 32
0.0
 13
1770.3900821582640219
 23
1389.3702581475249644
 33
0.0
  0
SOLID
  5
254
  8
0
 62
     0
 10
1767.8900821582631124
 20
994.9702581475252146
 30
0.0
 11
1772.8900821582640219
 21
994.9702581475252146
 31
0.0
 12
1770.3900821582640219
 22
979.9702581475256693
 32
0.0
 13
1770.3900821582640219
 23
979.9702581475256693
 33
0.0
  0
INSERT
  5
255
  8
0
  2
*U23
 10
0.0
 20
0.0
 30
0.0
  0
POINT
  5
256
  8
DEFPOINTS
 62
     0
 10
1789.9854361108939429
 20
1389.3702581475249644
 30
0.0
  0
POINT
  5
257
  8
DEFPOINTS
 62
     0
 10
1789.9854361108939429
 20
979.9702581475256693
 30
0.0
  0
POINT
  5
258
  8
DEFPOINTS
 62
     0
 10
1770.3900821582640219
 20
979.9702581475256693
 30
0.0
  0
ENDBLK
  5
259
  8
0
  0
BLOCK
  8
0
  2
*U23
 70
     1
 10
0.0
 20
0.0
 30
0.0
  3
*U23
  1

  0
TEXT
  5
9FE
  8
0
 62
     0
 10
1757.8900821582631124
 20
1139.6702581475260558
 30
0.0
 40
15.0
  1
409,4mm
 50
90.0
  0
ENDBLK
  5
A00
  8
0
  0
BLOCK
  8
0
  2
*D24
 70
     1
 10
0.0
 20
0.0
 30
0.0
  3
*D24
  1

  0
LINE
  5
25C
  8
0
 62
     0
 10
1726.2526244769699133
 20
1375.8702581475249644
 30
0.0
 11
1726.2526244769699133
 21
993.4702581475255556
 31
0.0
  0
SOLID
  5
25D
  8
0
 62
     0
 10
1723.7526244769699133
 20
1375.8702581475249644
 30
0.0
 11
1728.7526244769699133
 21
1375.8702581475249644
 31
0.0
 12
1726.2526244769699133
 22
1390.8702581475249644
 32
0.0
 13
1726.2526244769699133
 23
1390.8702581475249644
 33
0.0
  0
SOLID
  5
25E
  8
0
 62
     0
 10
1723.7526244769699133
 20
993.4702581475255556
 30
0.0
 11
1728.7526244769699133
 21
993.4702581475255556
 31
0.0
 12
1726.2526244769699133
 22
978.4702581475254419
 32
0.0
 13
1726.2526244769699133
 23
978.4702581475254419
 33
0.0
  0
INSERT
  5
25F
  8
0
  2
*U25
 10
0.0
 20
0.0
 30
0.0
  0
POINT
  5
260
  8
DEFPOINTS
 62
     0
 10
1788.4854361108950798
 20
1390.8702581475249644
 30
0.0
  0
POINT
  5
261
  8
DEFPOINTS
 62
     0
 10
1788.4854361108939429
 20
978.4702581475254419
 30
0.0
  0
POINT
  5
262
  8
DEFPOINTS
 62
     0
 10
1726.2526244769699133
 20
978.4702581475254419
 30
0.0
  0
ENDBLK
  5
263
  8
0
  0
BLOCK
  8
0
  2
*U25
 70
     1
 10
0.0
 20
0.0
 30
0.0
  3
*U25
  1

  0
TEXT
  5
A02
  8
0
 62
     0
 10
1713.7526244769699133
 20
1140.920258147524919
 30
0.0
 40
15.0
  1
412,4mm
 50
90.0
  0
ENDBLK
  5
A04
  8
0
  0
BLOCK
  8
0
  2
*D26
 70
     1
 10
0.0
 20
0.0
 30
0.0
  3
*D26
  1

  0
LINE
  5
2E1
  8
0
 62
     0
 10
3691.5828444676021718
 20
1457.0755931738449362
 30
0.0
 11
4200.9828444676022627
 21
1457.0755931738449362
 31
0.0
  0
SOLID
  5
2E2
  8
0
 62
     0
 10
3691.5828444676021718
 20
1459.5755931738449362
 30
0.0
 11
3691.5828444676021718
 21
1454.5755931738449362
 31
0.0
 12
3676.5828444676030813
 22
1457.0755931738449362
 32
0.0
 13
3676.5828444676030813
 23
1457.0755931738449362
 33
0.0
  0
SOLID
  5
2E3
  8
0
 62
     0
 10
4200.9828444676022627
 20
1459.5755931738449362
 30
0.0
 11
4200.9828444676022627
 21
1454.5755931738449362
 31
0.0
 12
4215.9828444676013532
 22
1457.0755931738449362
 32
0.0
 13
4215.9828444676013532
 23
1457.0755931738449362
 33
0.0
  0
INSERT
  5
2E4
  8
0
  2
*U27
 10
0.0
 20
0.0
 30
0.0
  0
POINT
  5
2E5
  8
DEFPOINTS
 62
     0
 10
3676.5828444676030813
 20
1390.8702579972550666
 30
0.0
  0
POINT
  5
2E6
  8
DEFPOINTS
 62
     0
 10
4215.9828444676013532
 20
1390.8702579972550666
 30
0.0
  0
POINT
  5
2E7
  8
DEFPOINTS
 62
     0
 10
4215.9828444676013532
 20
1457.0755931738449362
 30
0.0
  0
ENDBLK
  5
2E9
  8
0
  0
BLOCK
  8
0
  2
*U27
 70
     1
 10
0.0
 20
0.0
 30
0.0
  3
*U27
  1

  0
TEXT
  5
A74
  8
0
 62
     0
 10
3900.0328444676019899
 20
1469.5755931738449362
 30
0.0
 40
15.0
  1
539,4mm
  0
ENDBLK
  5
A76
  8
0
  0
BLOCK
  8
0
  2
*D28
 70
     1
 10
0.0
 20
0.0
 30
0.0
  3
*D28
  1

  0
LINE
  5
2EB
  8
0
 62
     0
 10
3693.0828444676021718
 20
1421.0663878691739228
 30
0.0
 11
4199.4828444676022627
 21
1421.0663878691739228
 31
0.0
  0
SOLID
  5
2EC
  8
0
 62
     0
 10
3693.0828444676021718
 20
1423.5663878691739228
 30
0.0
 11
3693.0828444676021718
 21
1418.5663878691739228
 31
0.0
 12
3678.0828444676008075
 22
1421.0663878691739228
 32
0.0
 13
3678.0828444676008075
 23
1421.0663878691739228
 33
0.0
  0
SOLID
  5
2ED
  8
0
 62
     0
 10
4199.4828444676022627
 20
1423.5663878691739228
 30
0.0
 11
4199.4828444676022627
 21
1418.5663878691739228
 31
0.0
 12
4214.4828444676013532
 22
1421.0663878691739228
 32
0.0
 13
4214.4828444676013532
 23
1421.0663878691739228
 33
0.0
  0
INSERT
  5
2EE
  8
0
  2
*U29
 10
0.0
 20
0.0
 30
0.0
  0
POINT
  5
2EF
  8
DEFPOINTS
 62
     0
 10
3678.0828444676008075
 20
1389.3702579972550666
 30
0.0
  0
POINT
  5
2F0
  8
DEFPOINTS
 62
     0
 10
4214.4828444676013532
 20
1389.3702579972550666
 30
0.0
  0
POINT
  5
2F1
  8
DEFPOINTS
 62
     0
 10
4214.4828444676013532
 20
1421.0663878691739228
 30
0.0
  0
ENDBLK
  5
2F3
  8
0
  0
BLOCK
  8
0
  2
*U29
 70
     1
 10
0.0
 20
0.0
 30
0.0
  3
*U29
  1

  0
TEXT
  5
A78
  8
0
 62
     0
 10
3900.0328444676019899
 20
1433.5663878691739228
 30
0.0
 40
15.0
  1
536,4mm
  0
ENDBLK
  5
A7A
  8
0
  0
BLOCK
  8
0
  2
*D30
 70
     1
 10
0.0
 20
0.0
 30
0.0
  3
*D30
  1

  0
LINE
  5
2F5
  8
0
 62
     0
 10
3658.4874905149708866
 20
1374.3702579972550666
 30
0.0
 11
3658.4874905149708866
 21
994.9702579972555441
 31
0.0
  0
SOLID
  5
2F6
  8
0
 62
     0
 10
3655.9874905149708866
 20
1374.3702579972550666
 30
0.0
 11
3660.9874905149717961
 21
1374.3702579972550666
 31
0.0
 12
3658.4874905149708866
 22
1389.3702579972550666
 32
0.0
 13
3658.4874905149708866
 23
1389.3702579972550666
 33
0.0
  0
SOLID
  5
2F7
  8
0
 62
     0
 10
3655.9874905149708866
 20
994.9702579972555441
 30
0.0
 11
3660.9874905149708866
 21
994.9702579972555441
 31
0.0
 12
3658.4874905149708866
 22
979.9702579972555441
 32
0.0
 13
3658.4874905149708866
 23
979.9702579972555441
 33
0.0
  0
INSERT
  5
2F8
  8
0
  2
*U31
 10
0.0
 20
0.0
 30
0.0
  0
POINT
  5
2F9
  8
DEFPOINTS
 62
     0
 10
3678.0828444676008075
 20
1389.3702579972550666
 30
0.0
  0
POINT
  5
2FA
  8
DEFPOINTS
 62
     0
 10
3678.0828444676008075
 20
979.9702579972555441
 30
0.0
  0
POINT
  5
2FB
  8
DEFPOINTS
 62
     0
 10
3658.4874905149708866
 20
979.9702579972555441
 30
0.0
  0
ENDBLK
  5
2FD
  8
0
  0
BLOCK
  8
0
  2
*U31
 70
     1
 10
0.0
 20
0.0
 30
0.0
  3
*U31
  1

  0
TEXT
  5
A7C
  8
0
 62
     0
 10
3645.9874905149708866
 20
1139.6702579972559306
 30
0.0
 40
15.0
  1
409,4mm
 50
90.0
  0
ENDBLK
  5
A7E
  8
0
  0
BLOCK
  8
0
  2
*D32
 70
     1
 10
0.0
 20
0.0
 30
0.0
  3
*D32
  1

  0
LINE
  5
2FF
  8
0
 62
     0
 10
3614.3500328336790517
 20
1375.8702579972550666
 30
0.0
 11
3614.3500328336790517
 21
993.4702579972555441
 31
0.0
  0
SOLID
  5
300
  8
0
 62
     0
 10
3611.8500328336790517
 20
1375.8702579972550666
 30
0.0
 11
3616.8500328336781422
 21
1375.8702579972550666
 31
0.0
 12
3614.3500328336790517
 22
1390.8702579972550666
 32
0.0
 13
3614.3500328336790517
 23
1390.8702579972550666
 33
0.0
  0
SOLID
  5
301
  8
0
 62
     0
 10
3611.8500328336790517
 20
993.4702579972555441
 30
0.0
 11
3616.8500328336781422
 21
993.4702579972555441
 31
0.0
 12
3614.3500328336790517
 22
978.4702579972555441
 32
0.0
 13
3614.3500328336790517
 23
978.4702579972555441
 33
0.0
  0
INSERT
  5
302
  8
0
  2
*U33
 10
0.0
 20
0.0
 30
0.0
  0
POINT
  5
303
  8
DEFPOINTS
 62
     0
 10
3676.5828444676030813
 20
1390.8702579972550666
 30
0.0
  0
POINT
  5
304
  8
DEFPOINTS
 62
     0
 10
3676.5828444676008075
 20
978.4702579972555441
 30
0.0
  0
POINT
  5
305
  8
DEFPOINTS
 62
     0
 10
3614.3500328336790517
 20
978.4702579972555441
 30
0.0
  0
ENDBLK
  5
307
  8
0
  0
BLOCK
  8
0
  2
*U33
 70
     1
 10
0.0
 20
0.0
 30
0.0
  3
*U33
  1

  0
TEXT
  5
A80
  8
0
 62
     0
 10
3601.8500328336790517
 20
1140.9202579972559306
 30
0.0
 40
15.0
  1
412,4mm
 50
90.0
  0
ENDBLK
  5
A82
  8
0
  0
BLOCK
  8
0
  2
*D34
 70
     1
 10
0.0
 20
0.0
 30
0.0
  3
*D34
  1

  0
LINE
  5
3CA
  8
0
 62
     0
 10
3727.2041321806050291
 20
1434.502289142689051
 30
0.0
 11
4513.0041321806020278
 21
1434.502289142689051
 31
0.0
  0
SOLID
  5
3CB
  8
0
 62
     0
 10
3727.2041321806050291
 20
1437.002289142689051
 30
0.0
 11
3727.2041321806050291
 21
1432.002289142689051
 31
0.0
 12
3712.2041321806041196
 22
1434.502289142689051
 32
0.0
 13
3712.2041321806041196
 23
1434.502289142689051
 33
0.0
  0
SOLID
  5
3CC
  8
0
 62
     0
 10
4513.0041321806020278
 20
1437.002289142689051
 30
0.0
 11
4513.0041321806020278
 21
1432.002289142689051
 31
0.0
 12
4528.0041321806038468
 22
1434.502289142689051
 32
0.0
 13
4528.0041321806038468
 23
1434.502289142689051
 33
0.0
  0
INSERT
  5
3CD
  8
0
  2
*U35
 10
0.0
 20
0.0
 30
0.0
  0
POINT
  5
3CE
  8
DEFPOINTS
 62
     0
 10
3712.2041321806041196
 20
1393.634607922692112
 30
0.0
  0
POINT
  5
3CF
  8
DEFPOINTS
 62
     0
 10
4528.0041321806038468
 20
1393.634607922692112
 30
0.0
  0
POINT
  5
3D0
  8
DEFPOINTS
 62
     0
 10
4528.0041321806038468
 20
1434.502289142689051
 30
0.0
  0
ENDBLK
  5
33D
  8
0
  0
BLOCK
  8
0
  2
*U35
 70
     1
 10
0.0
 20
0.0
 30
0.0
  3
*U35
  1

  0
TEXT
  5
AD3
  8
0
 62
     0
 10
4076.3541321806042106
 20
1447.0022891426879141
 30
0.0
 40
15.0
  1
815,8mm
  0
ENDBLK
  5
AD5
  8
0
  0
BLOCK
  8
0
  2
*D36
 70
     1
 10
0.0
 20
0.0
 30
0.0
  3
*D36
  1

  0
LINE
  5
353
  8
0
 62
     0
 10
4514.5041321806020278
 20
1488.0542592204330958
 30
0.0
 11
3725.7041321806050291
 21
1488.0542592204330958
 31
0.0
  0
SOLID
  5
354
  8
0
 62
     0
 10
4514.5041321806020278
 20
1490.5542592204340053
 30
0.0
 11
4514.5041321806020278
 21
1485.5542592204340053
 31
0.0
 12
4529.5041321806038468
 22
1488.0542592204330958
 32
0.0
 13
4529.5041321806038468
 23
1488.0542592204330958
 33
0.0
  0
SOLID
  5
355
  8
0
 62
     0
 10
3725.7041321806050291
 20
1490.5542592204340053
 30
0.0
 11
3725.7041321806050291
 21
1485.5542592204340053
 31
0.0
 12
3710.7041321806041196
 22
1488.0542592204330958
 32
0.0
 13
3710.7041321806041196
 23
1488.0542592204330958
 33
0.0
  0
INSERT
  5
356
  8
0
  2
*U37
 10
0.0
 20
0.0
 30
0.0
  0
POINT
  5
357
  8
DEFPOINTS
 62
     0
 10
4529.5041321806038468
 20
1393.634607922692112
 30
0.0
  0
POINT
  5
358
  8
DEFPOINTS
 62
     0
 10
3710.7041321806041196
 20
1393.634607922692112
 30
0.0
  0
POINT
  5
359
  8
DEFPOINTS
 62
     0
 10
3710.7041321806041196
 20
1488.0542592204330958
 30
0.0
  0
ENDBLK
  5
351
  8
0
  0
BLOCK
  8
0
  2
*U37
 70
     1
 10
0.0
 20
0.0
 30
0.0
  3
*U37
  1

  0
TEXT
  5
AA7
  8
0
 62
     0
 10
4076.3541321806042106
 20
1500.5542592204330958
 30
0.0
 40
15.0
  1
818,8mm
  0
ENDBLK
  5
AA9
  8
0
  0
BLOCK
  8
0
  2
*D38
 70
     1
 10
0.0
 20
0.0
 30
0.0
  3
*D38
  1

  0
LINE
  5
3C3
  8
0
 62
     0
 10
3681.8782297179768648
 20
1390.134607922692112
 30
0.0
 11
3681.8782297179768648
 21
909.1346079226915435
 31
0.0
  0
SOLID
  5
3C4
  8
0
 62
     0
 10
3679.3782297179777743
 20
1390.134607922692112
 30
0.0
 11
3684.3782297179768648
 21
1390.134607922692112
 31
0.0
 12
3681.8782297179768648
 22
1405.134607922692112
 32
0.0
 13
3681.8782297179768648
 23
1405.134607922692112
 33
0.0
  0
SOLID
  5
3C5
  8
0
 62
     0
 10
3679.3782297179777743
 20
909.1346079226915435
 30
0.0
 11
3684.3782297179768648
 21
909.1346079226915435
 31
0.0
 12
3681.8782297179768648
 22
894.1346079226925667
 32
0.0
 13
3681.8782297179768648
 23
894.1346079226925667
 33
0.0
  0
INSERT
  5
3C6
  8
0
  2
*U39
 10
0.0
 20
0.0
 30
0.0
  0
POINT
  5
3C7
  8
DEFPOINTS
 62
     0
 10
3723.7041321806059386
 20
1405.134607922692112
 30
0.0
  0
POINT
  5
3C8
  8
DEFPOINTS
 62
     0
 10
3723.7041321806059386
 20
894.1346079226925667
 30
0.0
  0
POINT
  5
3C9
  8
DEFPOINTS
 62
     0
 10
3681.8782297179768648
 20
894.1346079226925667
 30
0.0
  0
ENDBLK
  5
365
  8
0
  0
BLOCK
  8
0
  2
*U39
 70
     1
 10
0.0
 20
0.0
 30
0.0
  3
*U39
  1

  0
TEXT
  5
ACF
  8
0
 62
     0
 10
3671.8782297179768648
 20
1119.6346079226930215
 30
0.0
 40
15.0
  1
511mm
 50
90.0
  0
ENDBLK
  5
AD1
  8
0
  0
BLOCK
  8
0
  2
*D40
 70
     1
 10
0.0
 20
0.0
 30
0.0
  3
*D40
  1

  0
LINE
  5
37B
  8
0
 62
     0
 10
3635.7160358583969355
 20
907.634607922692112
 30
0.0
 11
3635.7160358583969355
 21
1391.634607922692112
 31
0.0
  0
SOLID
  5
37C
  8
0
 62
     0
 10
3633.216035858396026
 20
907.634607922692112
 30
0.0
 11
3638.2160358583969355
 21
907.634607922692112
 31
0.0
 12
3635.7160358583969355
 22
892.6346079226919983
 32
0.0
 13
3635.7160358583969355
 23
892.6346079226919983
 33
0.0
  0
SOLID
  5
37D
  8
0
 62
     0
 10
3633.216035858397845
 20
1391.634607922692112
 30
0.0
 11
3638.2160358583969355
 21
1391.634607922692112
 31
0.0
 12
3635.7160358583969355
 22
1406.634607922692112
 32
0.0
 13
3635.7160358583969355
 23
1406.634607922692112
 33
0.0
  0
INSERT
  5
37E
  8
0
  2
*U41
 10
0.0
 20
0.0
 30
0.0
  0
POINT
  5
37F
  8
DEFPOINTS
 62
     0
 10
3723.7041321806059386
 20
892.6346079226919983
 30
0.0
  0
POINT
  5
380
  8
DEFPOINTS
 62
     0
 10
3723.7041321806059386
 20
1406.634607922692112
 30
0.0
  0
POINT
  5
381
  8
DEFPOINTS
 62
     0
 10
3635.7160358583969355
 20
1406.634607922692112
 30
0.0
  0
ENDBLK
  5
379
  8
0
  0
BLOCK
  8
0
  2
*U41
 70
     1
 10
0.0
 20
0.0
 30
0.0
  3
*U41
  1

  0
TEXT
  5
AAB
  8
0
 62
     0
 10
3625.716035858397845
 20
1117.1346079226930215
 30
0.0
 40
15.0
  1
514mm
 50
90.0
  0
ENDBLK
  5
AAD
  8
0
  0
BLOCK
  8
0
  2
*D42
 70
     1
 10
0.0
 20
0.0
 30
0.0
  3
*D42
  1

  0
LINE
  5
3D1
  8
0
 62
     0
 10
3573.876642889923005
 20
1432.7798516391219437
 30
0.0
 11
3666.3766428899239145
 21
1432.7798516391219437
 31
0.0
  0
LINE
  5
3D2
  8
0
 62
     0
 10
3666.3766428899239145
 20
1432.7798516391219437
 30
0.0
 11
3692.6266567764250794
 21
1415.4417997347050004
 31
0.0
  0
INSERT
  5
3D3
  8
0
  2
*U43
 10
0.0
 20
0.0
 30
0.0
  0
LINE
  5
3D4
  8
0
 62
     0
 10
3714.7387536992077912
 20
1400.8368290165819872
 30
0.0
 11
3705.1429380534727898
 21
1407.1748351772750993
 31
0.0
  0
SOLID
  5
3D5
  8
0
 62
     0
 10
3694.0044842026650258
 20
1417.5278466142131037
 30
0.0
 11
3691.2488293501869521
 21
1413.3557528551959876
 31
0.0
 12
3705.1429380534727898
 22
1407.1748351772750993
 32
0.0
 13
3705.1429380534727898
 23
1407.1748351772750993
 33
0.0
  0
POINT
  5
3D6
  8
DEFPOINTS
 62
     0
 10
3705.1429380534727898
 20
1407.1748351772750993
 30
0.0
  0
POINT
  5
3D7
  8
DEFPOINTS
 62
     0
 10
3714.7387536992077912
 20
1400.8368290165819872
 30
0.0
  0
ENDBLK
  5
38D
  8
0
  0
BLOCK
  8
0
  2
*U43
 70
     1
 10
0.0
 20
0.0
 30
0.0
  3
*U43
  1

  0
TEXT
  5
AD7
  8
0
 62
     0
 10
3573.876642889923005
 20
1445.2798516391219437
 30
0.0
 40
15.0
  1
R11,5mm
  0
ENDBLK
  5
AD9
  8
0
  0
BLOCK
  8
0
  2
*D44
 70
     1
 10
0.0
 20
0.0
 30
0.0
  3
*D44
  1

  0
LINE
  5
3E2
  8
0
 62
     0
 10
3727.2041321806050291
 20
1434.502289142689051
 30
0.0
 11
4513.0041321806020278
 21
1434.502289142689051
 31
0.0
  0
SOLID
  5
3E3
  8
0
 62
     0
 10
3727.2041321806050291
 20
1437.002289142689051
 30
0.0
 11
3727.2041321806050291
 21
1432.002289142689051
 31
0.0
 12
3712.2041321806041196
 22
1434.502289142689051
 32
0.0
 13
3712.2041321806041196
 23
1434.502289142689051
 33
0.0
  0
SOLID
  5
3E4
  8
0
 62
     0
 10
4513.0041321806020278
 20
1437.002289142689051
 30
0.0
 11
4513.0041321806020278
 21
1432.002289142689051
 31
0.0
 12
4528.0041321806038468
 22
1434.502289142689051
 32
0.0
 13
4528.0041321806038468
 23
1434.502289142689051
 33
0.0
  0
INSERT
  5
3E5
  8
0
  2
*U45
 10
0.0
 20
0.0
 30
0.0
  0
POINT
  5
3E6
  8
DEFPOINTS
 62
     0
 10
3712.2041321806041196
 20
1393.634607922692112
 30
0.0
  0
POINT
  5
3E7
  8
DEFPOINTS
 62
     0
 10
4528.0041321806038468
 20
1393.634607922692112
 30
0.0
  0
POINT
  5
3E8
  8
DEFPOINTS
 62
     0
 10
4528.0041321806038468
 20
1434.502289142689051
 30
0.0
  0
ENDBLK
  5
3E9
  8
0
  0
BLOCK
  8
0
  2
*U45
 70
     1
 10
0.0
 20
0.0
 30
0.0
  3
*U45
  1

  0
TEXT
  5
ADB
  8
0
 62
     0
 10
4076.3541321806042106
 20
1447.0022891426879141
 30
0.0
 40
15.0
  1
815,8mm
  0
ENDBLK
  5
ADD
  8
0
  0
BLOCK
  8
0
  2
*D46
 70
     1
 10
0.0
 20
0.0
 30
0.0
  3
*D46
  1

  0
LINE
  5
3EC
  8
0
 62
     0
 10
4514.5041321806020278
 20
1488.0542592204330958
 30
0.0
 11
3725.7041321806050291
 21
1488.0542592204330958
 31
0.0
  0
SOLID
  5
3ED
  8
0
 62
     0
 10
4514.5041321806020278
 20
1490.5542592204340053
 30
0.0
 11
4514.5041321806020278
 21
1485.5542592204340053
 31
0.0
 12
4529.5041321806038468
 22
1488.0542592204330958
 32
0.0
 13
4529.5041321806038468
 23
1488.0542592204330958
 33
0.0
  0
SOLID
  5
3EE
  8
0
 62
     0
 10
3725.7041321806050291
 20
1490.5542592204340053
 30
0.0
 11
3725.7041321806050291
 21
1485.5542592204340053
 31
0.0
 12
3710.7041321806041196
 22
1488.0542592204330958
 32
0.0
 13
3710.7041321806041196
 23
1488.0542592204330958
 33
0.0
  0
INSERT
  5
3EF
  8
0
  2
*U47
 10
0.0
 20
0.0
 30
0.0
  0
POINT
  5
3F0
  8
DEFPOINTS
 62
     0
 10
4529.5041321806038468
 20
1393.634607922692112
 30
0.0
  0
POINT
  5
3F1
  8
DEFPOINTS
 62
     0
 10
3710.7041321806041196
 20
1393.634607922692112
 30
0.0
  0
POINT
  5
3F2
  8
DEFPOINTS
 62
     0
 10
3710.7041321806041196
 20
1488.0542592204330958
 30
0.0
  0
ENDBLK
  5
3F3
  8
0
  0
BLOCK
  8
0
  2
*U47
 70
     1
 10
0.0
 20
0.0
 30
0.0
  3
*U47
  1

  0
TEXT
  5
ADF
  8
0
 62
     0
 10
4076.3541321806042106
 20
1500.5542592204330958
 30
0.0
 40
15.0
  1
818,8mm
  0
ENDBLK
  5
AE1
  8
0
  0
BLOCK
  8
0
  2
*D48
 70
     1
 10
0.0
 20
0.0
 30
0.0
  3
*D48
  1

  0
LINE
  5
3F6
  8
0
 62
     0
 10
3681.8782297179768648
 20
1390.134607922692112
 30
0.0
 11
3681.8782297179768648
 21
909.1346079226915435
 31
0.0
  0
SOLID
  5
3F7
  8
0
 62
     0
 10
3679.3782297179777743
 20
1390.134607922692112
 30
0.0
 11
3684.3782297179768648
 21
1390.134607922692112
 31
0.0
 12
3681.8782297179768648
 22
1405.134607922692112
 32
0.0
 13
3681.8782297179768648
 23
1405.134607922692112
 33
0.0
  0
SOLID
  5
3F8
  8
0
 62
     0
 10
3679.3782297179777743
 20
909.1346079226915435
 30
0.0
 11
3684.3782297179768648
 21
909.1346079226915435
 31
0.0
 12
3681.8782297179768648
 22
894.1346079226925667
 32
0.0
 13
3681.8782297179768648
 23
894.1346079226925667
 33
0.0
  0
INSERT
  5
3F9
  8
0
  2
*U49
 10
0.0
 20
0.0
 30
0.0
  0
POINT
  5
3FA
  8
DEFPOINTS
 62
     0
 10
3723.7041321806059386
 20
1405.134607922692112
 30
0.0
  0
POINT
  5
3FB
  8
DEFPOINTS
 62
     0
 10
3723.7041321806059386
 20
894.1346079226925667
 30
0.0
  0
POINT
  5
3FC
  8
DEFPOINTS
 62
     0
 10
3681.8782297179768648
 20
894.1346079226925667
 30
0.0
  0
ENDBLK
  5
3FD
  8
0
  0
BLOCK
  8
0
  2
*U49
 70
     1
 10
0.0
 20
0.0
 30
0.0
  3
*U49
  1

  0
TEXT
  5
AE3
  8
0
 62
     0
 10
3671.8782297179768648
 20
1119.6346079226930215
 30
0.0
 40
15.0
  1
511mm
 50
90.0
  0
ENDBLK
  5
AE5
  8
0
  0
BLOCK
  8
0
  2
*D50
 70
     1
 10
0.0
 20
0.0
 30
0.0
  3
*D50
  1

  0
LINE
  5
400
  8
0
 62
     0
 10
3635.7160358583969355
 20
907.634607922692112
 30
0.0
 11
3635.7160358583969355
 21
1391.634607922692112
 31
0.0
  0
SOLID
  5
401
  8
0
 62
     0
 10
3633.216035858396026
 20
907.634607922692112
 30
0.0
 11
3638.2160358583969355
 21
907.634607922692112
 31
0.0
 12
3635.7160358583969355
 22
892.6346079226919983
 32
0.0
 13
3635.7160358583969355
 23
892.6346079226919983
 33
0.0
  0
SOLID
  5
402
  8
0
 62
     0
 10
3633.216035858397845
 20
1391.634607922692112
 30
0.0
 11
3638.2160358583969355
 21
1391.634607922692112
 31
0.0
 12
3635.7160358583969355
 22
1406.634607922692112
 32
0.0
 13
3635.7160358583969355
 23
1406.634607922692112
 33
0.0
  0
INSERT
  5
403
  8
0
  2
*U51
 10
0.0
 20
0.0
 30
0.0
  0
POINT
  5
404
  8
DEFPOINTS
 62
     0
 10
3723.7041321806059386
 20
892.6346079226919983
 30
0.0
  0
POINT
  5
405
  8
DEFPOINTS
 62
     0
 10
3723.7041321806059386
 20
1406.634607922692112
 30
0.0
  0
POINT
  5
406
  8
DEFPOINTS
 62
     0
 10
3635.7160358583969355
 20
1406.634607922692112
 30
0.0
  0
ENDBLK
  5
407
  8
0
  0
BLOCK
  8
0
  2
*U51
 70
     1
 10
0.0
 20
0.0
 30
0.0
  3
*U51
  1

  0
TEXT
  5
AE7
  8
0
 62
     0
 10
3625.716035858397845
 20
1117.1346079226930215
 30
0.0
 40
15.0
  1
514mm
 50
90.0
  0
ENDBLK
  5
AE9
  8
0
  0
BLOCK
  8
0
  2
*D52
 70
     1
 10
0.0
 20
0.0
 30
0.0
  3
*D52
  1

  0
LINE
  5
40A
  8
0
 62
     0
 10
3573.876642889923005
 20
1432.7798516391219437
 30
0.0
 11
3666.3766428899239145
 21
1432.7798516391219437
 31
0.0
  0
LINE
  5
40B
  8
0
 62
     0
 10
3666.3766428899239145
 20
1432.7798516391219437
 30
0.0
 11
3692.6266567764250794
 21
1415.4417997347050004
 31
0.0
  0
INSERT
  5
40C
  8
0
  2
*U53
 10
0.0
 20
0.0
 30
0.0
  0
LINE
  5
40D
  8
0
 62
     0
 10
3714.7387536992077912
 20
1400.8368290165819872
 30
0.0
 11
3705.1429380534727898
 21
1407.1748351772750993
 31
0.0
  0
SOLID
  5
40E
  8
0
 62
     0
 10
3694.0044842026650258
 20
1417.5278466142131037
 30
0.0
 11
3691.2488293501869521
 21
1413.3557528551959876
 31
0.0
 12
3705.1429380534727898
 22
1407.1748351772750993
 32
0.0
 13
3705.1429380534727898
 23
1407.1748351772750993
 33
0.0
  0
POINT
  5
40F
  8
DEFPOINTS
 62
     0
 10
3705.1429380534727898
 20
1407.1748351772750993
 30
0.0
  0
POINT
  5
410
  8
DEFPOINTS
 62
     0
 10
3714.7387536992077912
 20
1400.8368290165819872
 30
0.0
  0
ENDBLK
  5
411
  8
0
  0
BLOCK
  8
0
  2
*U53
 70
     1
 10
0.0
 20
0.0
 30
0.0
  3
*U53
  1

  0
TEXT
  5
AEB
  8
0
 62
     0
 10
3573.876642889923005
 20
1445.2798516391219437
 30
0.0
 40
15.0
  1
R11,5mm
  0
ENDBLK
  5
AED
  8
0
  0
BLOCK
  8
0
  2
*D54
 70
     1
 10
0.0
 20
0.0
 30
0.0
  3
*D54
  1

  0
LINE
  5
4D4
  8
0
 62
     0
 10
5506.5179299633446135
 20
1432.7798513385839669
 30
0.0
 11
5599.017929963349161
 21
1432.7798513385839669
 31
0.0
  0
LINE
  5
4D5
  8
0
 62
     0
 10
5599.017929963349161
 20
1432.7798513385839669
 30
0.0
 11
5625.2679438498480522
 21
1415.4417994341670237
 31
0.0
  0
INSERT
  5
4D6
  8
0
  2
*U55
 10
0.0
 20
0.0
 30
0.0
  0
LINE
  5
4D7
  8
0
 62
     0
 10
5647.3800407726275807
 20
1400.8368287160440104
 30
0.0
 11
5637.7842251268957625
 21
1407.1748348767368952
 31
0.0
  0
SOLID
  5
4D8
  8
0
 62
     0
 10
5626.6457712760884533
 20
1417.5278463136748996
 30
0.0
 11
5623.8901164236085606
 21
1413.3557525546589204
 31
0.0
 12
5637.7842251268957625
 22
1407.1748348767368952
 32
0.0
 13
5637.7842251268957625
 23
1407.1748348767368952
 33
0.0
  0
POINT
  5
4D9
  8
DEFPOINTS
 62
     0
 10
5637.7842251268957625
 20
1407.1748348767368952
 30
0.0
  0
POINT
  5
4DA
  8
DEFPOINTS
 62
     0
 10
5647.3800407726275807
 20
1400.8368287160440104
 30
0.0
  0
ENDBLK
  5
4AB
  8
0
  0
BLOCK
  8
0
  2
*U55
 70
     1
 10
0.0
 20
0.0
 30
0.0
  3
*U55
  1

  0
TEXT
  5
B7D
  8
0
 62
     0
 10
5506.5179299633446135
 20
1445.2798513385839669
 30
0.0
 40
15.0
  1
R11,5mm
  0
ENDBLK
  5
B7F
  8
0
  0
BLOCK
  8
0
  2
*D56
 70
     1
 10
0.0
 20
0.0
 30
0.0
  3
*D56
  1

  0
LINE
  5
4AD
  8
0
 62
     0
 10
5659.8454192540248187
 20
1434.5022888421510743
 30
0.0
 11
6445.64541925402591
 21
1434.5022888421510743
 31
0.0
  0
SOLID
  5
4AE
  8
0
 62
     0
 10
5659.8454192540248187
 20
1437.0022888421510743
 30
0.0
 11
5659.8454192540248187
 21
1432.0022888421510743
 31
0.0
 12
5644.8454192540257282
 22
1434.5022888421510743
 32
0.0
 13
5644.8454192540257282
 23
1434.5022888421510743
 33
0.0
  0
SOLID
  5
4AF
  8
0
 62
     0
 10
6445.64541925402591
 20
1437.0022888421510743
 30
0.0
 11
6445.64541925402591
 21
1432.0022888421510743
 31
0.0
 12
6460.6454192540250006
 22
1434.5022888421510743
 32
0.0
 13
6460.6454192540250006
 23
1434.5022888421510743
 33
0.0
  0
INSERT
  5
4B0
  8
0
  2
*U57
 10
0.0
 20
0.0
 30
0.0
  0
POINT
  5
4B1
  8
DEFPOINTS
 62
     0
 10
5644.8454192540257282
 20
1393.6346076221539079
 30
0.0
  0
POINT
  5
4B2
  8
DEFPOINTS
 62
     0
 10
6460.6454192540250006
 20
1393.6346076221539079
 30
0.0
  0
POINT
  5
4B3
  8
DEFPOINTS
 62
     0
 10
6460.6454192540250006
 20
1434.5022888421510743
 30
0.0
  0
ENDBLK
  5
4B5
  8
0
  0
BLOCK
  8
0
  2
*U57
 70
     1
 10
0.0
 20
0.0
 30
0.0
  3
*U57
  1

  0
TEXT
  5
B6D
  8
0
 62
     0
 10
6008.9954192540262738
 20
1447.0022888421510743
 30
0.0
 40
15.0
  1
815,8mm
  0
ENDBLK
  5
B6F
  8
0
  0
BLOCK
  8
0
  2
*D58
 70
     1
 10
0.0
 20
0.0
 30
0.0
  3
*D58
  1

  0
LINE
  5
4B7
  8
0
 62
     0
 10
6447.14541925402591
 20
1488.0542589198960286
 30
0.0
 11
5658.3454192540248187
 21
1488.0542589198960286
 31
0.0
  0
SOLID
  5
4B8
  8
0
 62
     0
 10
6447.14541925402591
 20
1490.5542589198960286
 30
0.0
 11
6447.14541925402591
 21
1485.5542589198948917
 31
0.0
 12
6462.1454192540250006
 22
1488.0542589198960286
 32
0.0
 13
6462.1454192540250006
 23
1488.0542589198960286
 33
0.0
  0
SOLID
  5
4B9
  8
0
 62
     0
 10
5658.3454192540248187
 20
1490.5542589198960286
 30
0.0
 11
5658.3454192540248187
 21
1485.5542589198948917
 31
0.0
 12
5643.3454192540257282
 22
1488.0542589198960286
 32
0.0
 13
5643.3454192540257282
 23
1488.0542589198960286
 33
0.0
  0
INSERT
  5
4BA
  8
0
  2
*U59
 10
0.0
 20
0.0
 30
0.0
  0
POINT
  5
4BB
  8
DEFPOINTS
 62
     0
 10
6462.1454192540250006
 20
1393.6346076221539079
 30
0.0
  0
POINT
  5
4BC
  8
DEFPOINTS
 62
     0
 10
5643.3454192540257282
 20
1393.6346076221539079
 30
0.0
  0
POINT
  5
4BD
  8
DEFPOINTS
 62
     0
 10
5643.3454192540257282
 20
1488.0542589198960286
 30
0.0
  0
ENDBLK
  5
4BF
  8
0
  0
BLOCK
  8
0
  2
*U59
 70
     1
 10
0.0
 20
0.0
 30
0.0
  3
*U59
  1

  0
TEXT
  5
B71
  8
0
 62
     0
 10
6008.9954192540262738
 20
1500.5542589198960286
 30
0.0
 40
15.0
  1
818,8mm
  0
ENDBLK
  5
B73
  8
0
  0
BLOCK
  8
0
  2
*D60
 70
     1
 10
0.0
 20
0.0
 30
0.0
  3
*D60
  1

  0
LINE
  5
4C1
  8
0
 62
     0
 10
5614.519516791398928
 20
1390.1346076221550447
 30
0.0
 11
5614.519516791398928
 21
909.1346076221542489
 31
0.0
  0
SOLID
  5
4C2
  8
0
 62
     0
 10
5612.019516791398928
 20
1390.1346076221550447
 30
0.0
 11
5617.0195167913980185
 21
1390.1346076221550447
 31
0.0
 12
5614.519516791398928
 22
1405.1346076221539079
 32
0.0
 13
5614.519516791398928
 23
1405.1346076221539079
 33
0.0
  0
SOLID
  5
4C3
  8
0
 62
     0
 10
5612.019516791398928
 20
909.1346076221542489
 30
0.0
 11
5617.0195167913980185
 21
909.1346076221542489
 31
0.0
 12
5614.519516791398928
 22
894.1346076221542489
 32
0.0
 13
5614.519516791398928
 23
894.1346076221542489
 33
0.0
  0
INSERT
  5
4C4
  8
0
  2
*U61
 10
0.0
 20
0.0
 30
0.0
  0
POINT
  5
4C5
  8
DEFPOINTS
 62
     0
 10
5656.3454192540257282
 20
1405.1346076221539079
 30
0.0
  0
POINT
  5
4C6
  8
DEFPOINTS
 62
     0
 10
5656.3454192540257282
 20
894.1346076221542489
 30
0.0
  0
POINT
  5
4C7
  8
DEFPOINTS
 62
     0
 10
5614.519516791398928
 20
894.1346076221542489
 30
0.0
  0
ENDBLK
  5
4C9
  8
0
  0
BLOCK
  8
0
  2
*U61
 70
     1
 10
0.0
 20
0.0
 30
0.0
  3
*U61
  1

  0
TEXT
  5
B75
  8
0
 62
     0
 10
5604.5195167913980185
 20
1119.6346076221550447
 30
0.0
 40
15.0
  1
511mm
 50
90.0
  0
ENDBLK
  5
B77
  8
0
  0
BLOCK
  8
0
  2
*D62
 70
     1
 10
0.0
 20
0.0
 30
0.0
  3
*D62
  1

  0
LINE
  5
4CB
  8
0
 62
     0
 10
5568.3573229318189988
 20
907.6346076221537942
 30
0.0
 11
5568.3573229318189988
 21
1391.6346076221539079
 31
0.0
  0
SOLID
  5
4CC
  8
0
 62
     0
 10
5565.8573229318189988
 20
907.6346076221537942
 30
0.0
 11
5570.8573229318189988
 21
907.6346076221537942
 31
0.0
 12
5568.3573229318189988
 22
892.6346076221542489
 32
0.0
 13
5568.3573229318189988
 23
892.6346076221542489
 33
0.0
  0
SOLID
  5
4CD
  8
0
 62
     0
 10
5565.8573229318189988
 20
1391.6346076221539079
 30
0.0
 11
5570.8573229318189988
 21
1391.6346076221539079
 31
0.0
 12
5568.3573229318189988
 22
1406.6346076221539079
 32
0.0
 13
5568.3573229318189988
 23
1406.6346076221539079
 33
0.0
  0
INSERT
  5
4CE
  8
0
  2
*U63
 10
0.0
 20
0.0
 30
0.0
  0
POINT
  5
4CF
  8
DEFPOINTS
 62
     0
 10
5656.3454192540257282
 20
892.6346076221542489
 30
0.0
  0
POINT
  5
4D0
  8
DEFPOINTS
 62
     0
 10
5656.3454192540257282
 20
1406.6346076221539079
 30
0.0
  0
POINT
  5
4D1
  8
DEFPOINTS
 62
     0
 10
5568.3573229318189988
 20
1406.6346076221539079
 30
0.0
  0
ENDBLK
  5
4D3
  8
0
  0
BLOCK
  8
0
  2
*U63
 70
     1
 10
0.0
 20
0.0
 30
0.0
  3
*U63
  1

  0
TEXT
  5
B79
  8
0
 62
     0
 10
5558.3573229318189988
 20
1117.1346076221550447
 30
0.0
 40
15.0
  1
514mm
 50
90.0
  0
ENDBLK
  5
B7B
  8
0
  0
BLOCK
  8
0
  2
*D64
 70
     1
 10
0.0
 20
0.0
 30
0.0
  3
*D64
  1

  0
LINE
  5
564
  8
0
 62
     0
 10
5764.8370518275851282
 20
1412.5324862040479275
 30
0.0
 11
6398.2370518275847644
 21
1412.5324862040479275
 31
0.0
  0
SOLID
  5
565
  8
0
 62
     0
 10
5764.8370518275851282
 20
1415.0324862040479275
 30
0.0
 11
5764.8370518275851282
 21
1410.0324862040479275
 31
0.0
 12
5749.8370518275860377
 22
1412.5324862040479275
 32
0.0
 13
5749.8370518275860377
 23
1412.5324862040479275
 33
0.0
  0
SOLID
  5
566
  8
0
 62
     0
 10
6398.2370518275847644
 20
1415.0324862040479275
 30
0.0
 11
6398.2370518275847644
 21
1410.0324862040479275
 31
0.0
 12
6413.2370518275856739
 22
1412.5324862040479275
 32
0.0
 13
6413.2370518275856739
 23
1412.5324862040479275
 33
0.0
  0
INSERT
  5
567
  8
0
  2
*U65
 10
0.0
 20
0.0
 30
0.0
  0
POINT
  5
568
  8
DEFPOINTS
 62
     0
 10
5749.8370518275860377
 20
1376.7888329762599824
 30
0.0
  0
POINT
  5
569
  8
DEFPOINTS
 62
     0
 10
6413.2370518275856739
 20
1376.7888329762599824
 30
0.0
  0
POINT
  5
56A
  8
DEFPOINTS
 62
     0
 10
6413.2370518275856739
 20
1412.5324862040479275
 30
0.0
  0
ENDBLK
  5
4F5
  8
0
  0
BLOCK
  8
0
  2
*U65
 70
     1
 10
0.0
 20
0.0
 30
0.0
  3
*U65
  1

  0
TEXT
  5
B89
  8
0
 62
     0
 10
6035.2870518275858558
 20
1425.0324862040479275
 30
0.0
 40
15.0
  1
663,4mm
  0
ENDBLK
  5
B8B
  8
0
  0
BLOCK
  8
0
  2
*D66
 70
     1
 10
0.0
 20
0.0
 30
0.0
  3
*D66
  1

  0
LINE
  5
50B
  8
0
 62
     0
 10
5763.3370518275851282
 20
1460.0366130835141121
 30
0.0
 11
6399.7370518275847644
 21
1460.0366130835141121
 31
0.0
  0
SOLID
  5
50C
  8
0
 62
     0
 10
5763.3370518275851282
 20
1462.5366130835129752
 30
0.0
 11
5763.3370518275851282
 21
1457.5366130835141121
 31
0.0
 12
5748.3370518275860377
 22
1460.0366130835141121
 32
0.0
 13
5748.3370518275860377
 23
1460.0366130835141121
 33
0.0
  0
SOLID
  5
50D
  8
0
 62
     0
 10
6399.7370518275847644
 20
1462.5366130835129752
 30
0.0
 11
6399.7370518275847644
 21
1457.5366130835141121
 31
0.0
 12
6414.7370518275856739
 22
1460.0366130835141121
 32
0.0
 13
6414.7370518275856739
 23
1460.0366130835141121
 33
0.0
  0
INSERT
  5
50E
  8
0
  2
*U67
 10
0.0
 20
0.0
 30
0.0
  0
POINT
  5
50F
  8
DEFPOINTS
 62
     0
 10
5748.3370518275860377
 20
1376.7888329762599824
 30
0.0
  0
POINT
  5
510
  8
DEFPOINTS
 62
     0
 10
6414.7370518275856739
 20
1376.7888329762599824
 30
0.0
  0
POINT
  5
511
  8
DEFPOINTS
 62
     0
 10
6414.7370518275856739
 20
1460.0366130835141121
 30
0.0
  0
ENDBLK
  5
509
  8
0
  0
BLOCK
  8
0
  2
*U67
 70
     1
 10
0.0
 20
0.0
 30
0.0
  3
*U67
  1

  0
TEXT
  5
B81
  8
0
 62
     0
 10
6035.2870518275858558
 20
1472.5366130835141121
 30
0.0
 40
15.0
  1
666,4mm
  0
ENDBLK
  5
B83
  8
0
  0
BLOCK
  8
0
  2
*D68
 70
     1
 10
0.0
 20
0.0
 30
0.0
  3
*D68
  1

  0
LINE
  5
572
  8
0
 62
     0
 10
5716.8545702033861744
 20
1373.2888329762620288
 30
0.0
 11
5716.8545702033861744
 21
892.2888329762612329
 31
0.0
  0
SOLID
  5
573
  8
0
 62
     0
 10
5714.3545702033861744
 20
1373.2888329762620288
 30
0.0
 11
5719.3545702033861744
 21
1373.2888329762620288
 31
0.0
 12
5716.8545702033861744
 22
1388.2888329762608919
 32
0.0
 13
5716.8545702033861744
 23
1388.2888329762608919
 33
0.0
  0
SOLID
  5
574
  8
0
 62
     0
 10
5714.3545702033861744
 20
892.2888329762612329
 30
0.0
 11
5719.3545702033861744
 21
892.2888329762612329
 31
0.0
 12
5716.8545702033861744
 22
877.2888329762611193
 32
0.0
 13
5716.8545702033861744
 23
877.2888329762611193
 33
0.0
  0
INSERT
  5
575
  8
0
  2
*U69
 10
0.0
 20
0.0
 30
0.0
  0
POINT
  5
576
  8
DEFPOINTS
 62
     0
 10
5761.3370518275851282
 20
1388.2888329762608919
 30
0.0
  0
POINT
  5
577
  8
DEFPOINTS
 62
     0
 10
5761.3370518275851282
 20
877.2888329762611193
 30
0.0
  0
POINT
  5
578
  8
DEFPOINTS
 62
     0
 10
5716.8545702033861744
 20
877.2888329762611193
 30
0.0
  0
ENDBLK
  5
51D
  8
0
  0
BLOCK
  8
0
  2
*U69
 70
     1
 10
0.0
 20
0.0
 30
0.0
  3
*U69
  1

  0
TEXT
  5
B91
  8
0
 62
     0
 10
5706.8545702033861744
 20
1102.7888329762620288
 30
0.0
 40
15.0
  1
511mm
 50
90.0
  0
ENDBLK
  5
B93
  8
0
  0
BLOCK
  8
0
  2
*D70
 70
     1
 10
0.0
 20
0.0
 30
0.0
  3
*D70
  1

  0
LINE
  5
533
  8
0
 62
     0
 10
5667.5164839832250436
 20
1374.7888329762620288
 30
0.0
 11
5667.5164839832250436
 21
890.7888329762611193
 31
0.0
  0
SOLID
  5
534
  8
0
 62
     0
 10
5665.0164839832250436
 20
1374.7888329762620288
 30
0.0
 11
5670.0164839832250436
 21
1374.7888329762620288
 31
0.0
 12
5667.5164839832250436
 22
1389.7888329762599824
 32
0.0
 13
5667.5164839832250436
 23
1389.7888329762599824
 33
0.0
  0
SOLID
  5
535
  8
0
 62
     0
 10
5665.0164839832250436
 20
890.7888329762611193
 30
0.0
 11
5670.0164839832250436
 21
890.7888329762611193
 31
0.0
 12
5667.5164839832250436
 22
875.7888329762613466
 32
0.0
 13
5667.5164839832250436
 23
875.7888329762613466
 33
0.0
  0
INSERT
  5
536
  8
0
  2
*U71
 10
0.0
 20
0.0
 30
0.0
  0
POINT
  5
537
  8
DEFPOINTS
 62
     0
 10
5761.3370518275851282
 20
1389.7888329762599824
 30
0.0
  0
POINT
  5
538
  8
DEFPOINTS
 62
     0
 10
5761.3370518275851282
 20
875.7888329762613466
 30
0.0
  0
POINT
  5
539
  8
DEFPOINTS
 62
     0
 10
5667.5164839832250436
 20
875.7888329762613466
 30
0.0
  0
ENDBLK
  5
531
  8
0
  0
BLOCK
  8
0
  2
*U71
 70
     1
 10
0.0
 20
0.0
 30
0.0
  3
*U71
  1

  0
TEXT
  5
B85
  8
0
 62
     0
 10
5657.5164839832259531
 20
1100.2888329762620288
 30
0.0
 40
15.0
  1
514mm
 50
90.0
  0
ENDBLK
  5
B87
  8
0
  0
BLOCK
  8
0
  2
*D72
 70
     1
 10
0.0
 20
0.0
 30
0.0
  3
*D72
  1

  0
LINE
  5
56B
  8
0
 62
     0
 10
5583.992879220208124
 20
1404.5308093420790101
 30
0.0
 11
5676.4928792202290424
 21
1404.5308093420790101
 31
0.0
  0
LINE
  5
56C
  8
0
 62
     0
 10
5676.4928792202290424
 20
1404.5308093420790101
 30
0.0
 11
5726.8778764966036761
 21
1390.989451521448018
 31
0.0
  0
INSERT
  5
56D
  8
0
  2
*U73
 10
0.0
 20
0.0
 30
0.0
  0
LINE
  5
56E
  8
0
 62
     0
 10
5752.4697305773379412
 20
1384.1114427463410266
 30
0.0
 11
5741.3638316366414074
 21
1387.0962390072370454
 31
0.0
  0
SOLID
  5
56F
  8
0
 62
     0
 10
5727.5267452489715652
 20
1393.403777378121049
 30
0.0
 11
5726.2290077442330585
 21
1388.5751256647749869
 31
0.0
 12
5741.3638316366414074
 22
1387.0962390072370454
 32
0.0
 13
5741.3638316366414074
 23
1387.0962390072370454
 33
0.0
  0
POINT
  5
570
  8
DEFPOINTS
 62
     0
 10
5741.3638316366414074
 20
1387.0962390072370454
 30
0.0
  0
POINT
  5
571
  8
DEFPOINTS
 62
     0
 10
5752.4697305773379412
 20
1384.1114427463410266
 30
0.0
  0
ENDBLK
  5
545
  8
0
  0
BLOCK
  8
0
  2
*U73
 70
     1
 10
0.0
 20
0.0
 30
0.0
  3
*U73
  1

  0
TEXT
  5
B8D
  8
0
 62
     0
 10
5583.992879220208124
 20
1417.0308093420790101
 30
0.0
 40
15.0
  1
R11,5mm
  0
ENDBLK
  5
B8F
  8
0
  0
BLOCK
  8
0
  2
*D74
 70
     1
 10
0.0
 20
0.0
 30
0.0
  3
*D74
  1

  0
LINE
  5
593
  8
0
 62
     0
 10
5764.8370518275851282
 20
1412.5324862040479275
 30
0.0
 11
6398.2370518275847644
 21
1412.5324862040479275
 31
0.0
  0
SOLID
  5
594
  8
0
 62
     0
 10
5764.8370518275851282
 20
1415.0324862040479275
 30
0.0
 11
5764.8370518275851282
 21
1410.0324862040479275
 31
0.0
 12
5749.8370518275860377
 22
1412.5324862040479275
 32
0.0
 13
5749.8370518275860377
 23
1412.5324862040479275
 33
0.0
  0
SOLID
  5
595
  8
0
 62
     0
 10
6398.2370518275847644
 20
1415.0324862040479275
 30
0.0
 11
6398.2370518275847644
 21
1410.0324862040479275
 31
0.0
 12
6413.2370518275856739
 22
1412.5324862040479275
 32
0.0
 13
6413.2370518275856739
 23
1412.5324862040479275
 33
0.0
  0
INSERT
  5
596
  8
0
  2
*U75
 10
0.0
 20
0.0
 30
0.0
  0
POINT
  5
597
  8
DEFPOINTS
 62
     0
 10
5749.8370518275860377
 20
1376.7888329762599824
 30
0.0
  0
POINT
  5
598
  8
DEFPOINTS
 62
     0
 10
6413.2370518275856739
 20
1376.7888329762599824
 30
0.0
  0
POINT
  5
599
  8
DEFPOINTS
 62
     0
 10
6413.2370518275856739
 20
1412.5324862040479275
 30
0.0
  0
ENDBLK
  5
59A
  8
0
  0
BLOCK
  8
0
  2
*U75
 70
     1
 10
0.0
 20
0.0
 30
0.0
  3
*U75
  1

  0
TEXT
  5
BB5
  8
0
 62
     0
 10
6035.2870518275858558
 20
1425.0324862040479275
 30
0.0
 40
15.0
  1
663,4mm
  0
ENDBLK
  5
BB7
  8
0
  0
BLOCK
  8
0
  2
*D76
 70
     1
 10
0.0
 20
0.0
 30
0.0
  3
*D76
  1

  0
LINE
  5
59D
  8
0
 62
     0
 10
5763.3370518275851282
 20
1460.0366130835141121
 30
0.0
 11
6399.7370518275847644
 21
1460.0366130835141121
 31
0.0
  0
SOLID
  5
59E
  8
0
 62
     0
 10
5763.3370518275851282
 20
1462.5366130835129752
 30
0.0
 11
5763.3370518275851282
 21
1457.5366130835141121
 31
0.0
 12
5748.3370518275860377
 22
1460.0366130835141121
 32
0.0
 13
5748.3370518275860377
 23
1460.0366130835141121
 33
0.0
  0
SOLID
  5
59F
  8
0
 62
     0
 10
6399.7370518275847644
 20
1462.5366130835129752
 30
0.0
 11
6399.7370518275847644
 21
1457.5366130835141121
 31
0.0
 12
6414.7370518275856739
 22
1460.0366130835141121
 32
0.0
 13
6414.7370518275856739
 23
1460.0366130835141121
 33
0.0
  0
INSERT
  5
5A0
  8
0
  2
*U77
 10
0.0
 20
0.0
 30
0.0
  0
POINT
  5
5A1
  8
DEFPOINTS
 62
     0
 10
5748.3370518275860377
 20
1376.7888329762599824
 30
0.0
  0
POINT
  5
5A2
  8
DEFPOINTS
 62
     0
 10
6414.7370518275856739
 20
1376.7888329762599824
 30
0.0
  0
POINT
  5
5A3
  8
DEFPOINTS
 62
     0
 10
6414.7370518275856739
 20
1460.0366130835141121
 30
0.0
  0
ENDBLK
  5
5A4
  8
0
  0
BLOCK
  8
0
  2
*U77
 70
     1
 10
0.0
 20
0.0
 30
0.0
  3
*U77
  1

  0
TEXT
  5
BB9
  8
0
 62
     0
 10
6035.2870518275858558
 20
1472.5366130835141121
 30
0.0
 40
15.0
  1
666,4mm
  0
ENDBLK
  5
BBB
  8
0
  0
BLOCK
  8
0
  2
*D78
 70
     1
 10
0.0
 20
0.0
 30
0.0
  3
*D78
  1

  0
LINE
  5
5A7
  8
0
 62
     0
 10
5716.8545702033861744
 20
1373.2888329762620288
 30
0.0
 11
5716.8545702033861744
 21
892.2888329762612329
 31
0.0
  0
SOLID
  5
5A8
  8
0
 62
     0
 10
5714.3545702033861744
 20
1373.2888329762620288
 30
0.0
 11
5719.3545702033861744
 21
1373.2888329762620288
 31
0.0
 12
5716.8545702033861744
 22
1388.2888329762608919
 32
0.0
 13
5716.8545702033861744
 23
1388.2888329762608919
 33
0.0
  0
SOLID
  5
5A9
  8
0
 62
     0
 10
5714.3545702033861744
 20
892.2888329762612329
 30
0.0
 11
5719.3545702033861744
 21
892.2888329762612329
 31
0.0
 12
5716.8545702033861744
 22
877.2888329762611193
 32
0.0
 13
5716.8545702033861744
 23
877.2888329762611193
 33
0.0
  0
INSERT
  5
5AA
  8
0
  2
*U79
 10
0.0
 20
0.0
 30
0.0
  0
POINT
  5
5AB
  8
DEFPOINTS
 62
     0
 10
5761.3370518275851282
 20
1388.2888329762608919
 30
0.0
  0
POINT
  5
5AC
  8
DEFPOINTS
 62
     0
 10
5761.3370518275851282
 20
877.2888329762611193
 30
0.0
  0
POINT
  5
5AD
  8
DEFPOINTS
 62
     0
 10
5716.8545702033861744
 20
877.2888329762611193
 30
0.0
  0
ENDBLK
  5
5AE
  8
0
  0
BLOCK
  8
0
  2
*U79
 70
     1
 10
0.0
 20
0.0
 30
0.0
  3
*U79
  1

  0
TEXT
  5
BBD
  8
0
 62
     0
 10
5706.8545702033861744
 20
1102.7888329762620288
 30
0.0
 40
15.0
  1
511mm
 50
90.0
  0
ENDBLK
  5
BBF
  8
0
  0
BLOCK
  8
0
  2
*D80
 70
     1
 10
0.0
 20
0.0
 30
0.0
  3
*D80
  1

  0
LINE
  5
5B1
  8
0
 62
     0
 10
5667.5164839832250436
 20
1374.7888329762620288
 30
0.0
 11
5667.5164839832250436
 21
890.7888329762611193
 31
0.0
  0
SOLID
  5
5B2
  8
0
 62
     0
 10
5665.0164839832250436
 20
1374.7888329762620288
 30
0.0
 11
5670.0164839832250436
 21
1374.7888329762620288
 31
0.0
 12
5667.5164839832250436
 22
1389.7888329762599824
 32
0.0
 13
5667.5164839832250436
 23
1389.7888329762599824
 33
0.0
  0
SOLID
  5
5B3
  8
0
 62
     0
 10
5665.0164839832250436
 20
890.7888329762611193
 30
0.0
 11
5670.0164839832250436
 21
890.7888329762611193
 31
0.0
 12
5667.5164839832250436
 22
875.7888329762613466
 32
0.0
 13
5667.5164839832250436
 23
875.7888329762613466
 33
0.0
  0
INSERT
  5
5B4
  8
0
  2
*U81
 10
0.0
 20
0.0
 30
0.0
  0
POINT
  5
5B5
  8
DEFPOINTS
 62
     0
 10
5761.3370518275851282
 20
1389.7888329762599824
 30
0.0
  0
POINT
  5
5B6
  8
DEFPOINTS
 62
     0
 10
5761.3370518275851282
 20
875.7888329762613466
 30
0.0
  0
POINT
  5
5B7
  8
DEFPOINTS
 62
     0
 10
5667.5164839832250436
 20
875.7888329762613466
 30
0.0
  0
ENDBLK
  5
5B8
  8
0
  0
BLOCK
  8
0
  2
*U81
 70
     1
 10
0.0
 20
0.0
 30
0.0
  3
*U81
  1

  0
TEXT
  5
BC1
  8
0
 62
     0
 10
5657.5164839832259531
 20
1100.2888329762620288
 30
0.0
 40
15.0
  1
514mm
 50
90.0
  0
ENDBLK
  5
BC3
  8
0
  0
BLOCK
  8
0
  2
*D82
 70
     1
 10
0.0
 20
0.0
 30
0.0
  3
*D82
  1

  0
LINE
  5
5BB
  8
0
 62
     0
 10
5583.992879220208124
 20
1404.5308093420790101
 30
0.0
 11
5676.4928792202290424
 21
1404.5308093420790101
 31
0.0
  0
LINE
  5
5BC
  8
0
 62
     0
 10
5676.4928792202290424
 20
1404.5308093420790101
 30
0.0
 11
5726.8778764966036761
 21
1390.989451521448018
 31
0.0
  0
INSERT
  5
5BD
  8
0
  2
*U83
 10
0.0
 20
0.0
 30
0.0
  0
LINE
  5
5BE
  8
0
 62
     0
 10
5752.4697305773379412
 20
1384.1114427463410266
 30
0.0
 11
5741.3638316366414074
 21
1387.0962390072370454
 31
0.0
  0
SOLID
  5
5BF
  8
0
 62
     0
 10
5727.5267452489715652
 20
1393.403777378121049
 30
0.0
 11
5726.2290077442330585
 21
1388.5751256647749869
 31
0.0
 12
5741.3638316366414074
 22
1387.0962390072370454
 32
0.0
 13
5741.3638316366414074
 23
1387.0962390072370454
 33
0.0
  0
POINT
  5
5C0
  8
DEFPOINTS
 62
     0
 10
5741.3638316366414074
 20
1387.0962390072370454
 30
0.0
  0
POINT
  5
5C1
  8
DEFPOINTS
 62
     0
 10
5752.4697305773379412
 20
1384.1114427463410266
 30
0.0
  0
ENDBLK
  5
5C2
  8
0
  0
BLOCK
  8
0
  2
*U83
 70
     1
 10
0.0
 20
0.0
 30
0.0
  3
*U83
  1

  0
TEXT
  5
BC5
  8
0
 62
     0
 10
5583.992879220208124
 20
1417.0308093420790101
 30
0.0
 40
15.0
  1
R11,5mm
  0
ENDBLK
  5
BC7
  8
0
  0
BLOCK
  8
0
  2
*D84
 70
     1
 10
0.0
 20
0.0
 30
0.0
  3
*D84
  1

  0
LINE
  5
685
  8
0
 62
     0
 10
3651.3515909820612251
 20
-55.9966591221841625
 30
0.0
 11
3743.8515909820839624
 21
-55.9966591221841625
 31
0.0
  0
LINE
  5
686
  8
0
 62
     0
 10
3743.8515909820839624
 20
-55.9966591221841625
 30
0.0
 11
3794.2365882584581414
 21
-69.5380169428151476
 31
0.0
  0
INSERT
  5
687
  8
0
  2
*U85
 10
0.0
 20
0.0
 30
0.0
  0
LINE
  5
688
  8
0
 62
     0
 10
3819.8284423391928613
 20
-76.4160257179217979
 30
0.0
 11
3808.7225433984949632
 21
-73.4312294570261344
 31
0.0
  0
SOLID
  5
689
  8
0
 62
     0
 10
3794.885457010825121
 20
-67.1236910861421165
 30
0.0
 11
3793.5877195060879785
 21
-71.9523427994880649
 31
0.0
 12
3808.7225433984949632
 22
-73.4312294570261344
 32
0.0
 13
3808.7225433984949632
 23
-73.4312294570261344
 33
0.0
  0
POINT
  5
68A
  8
DEFPOINTS
 62
     0
 10
3808.7225433984949632
 20
-73.4312294570261344
 30
0.0
  0
POINT
  5
68B
  8
DEFPOINTS
 62
     0
 10
3819.8284423391928613
 20
-76.4160257179217979
 30
0.0
  0
ENDBLK
  5
65C
  8
0
  0
BLOCK
  8
0
  2
*U85
 70
     1
 10
0.0
 20
0.0
 30
0.0
  3
*U85
  1

  0
TEXT
  5
C57
  8
0
 62
     0
 10
3651.3515909820612251
 20
-43.4966591221843828
 30
0.0
 40
15.0
  1
R11,5mm
  0
ENDBLK
  5
C59
  8
0
  0
BLOCK
  8
0
  2
*D86
 70
     1
 10
0.0
 20
0.0
 30
0.0
  3
*D86
  1

  0
LINE
  5
65E
  8
0
 62
     0
 10
3832.1957635894391387
 20
-47.9949822602149965
 30
0.0
 11
4465.5957635894374107
 21
-47.9949822602149965
 31
0.0
  0
SOLID
  5
65F
  8
0
 62
     0
 10
3832.1957635894391387
 20
-45.4949822602149965
 30
0.0
 11
3832.1957635894391387
 21
-50.4949822602149965
 31
0.0
 12
3817.195763589436865
 22
-47.9949822602149965
 32
0.0
 13
3817.195763589436865
 23
-47.9949822602149965
 33
0.0
  0
SOLID
  5
660
  8
0
 62
     0
 10
4465.5957635894374107
 20
-45.4949822602149965
 30
0.0
 11
4465.5957635894374107
 21
-50.4949822602149965
 31
0.0
 12
4480.5957635894374107
 22
-47.9949822602149965
 32
0.0
 13
4480.5957635894374107
 23
-47.9949822602149965
 33
0.0
  0
INSERT
  5
661
  8
0
  2
*U87
 10
0.0
 20
0.0
 30
0.0
  0
POINT
  5
662
  8
DEFPOINTS
 62
     0
 10
3817.195763589436865
 20
-83.7386354880018189
 30
0.0
  0
POINT
  5
663
  8
DEFPOINTS
 62
     0
 10
4480.5957635894374107
 20
-83.7386354880020463
 30
0.0
  0
POINT
  5
664
  8
DEFPOINTS
 62
     0
 10
4480.5957635894374107
 20
-47.9949822602149965
 30
0.0
  0
ENDBLK
  5
666
  8
0
  0
BLOCK
  8
0
  2
*U87
 70
     1
 10
0.0
 20
0.0
 30
0.0
  3
*U87
  1

  0
TEXT
  5
C47
  8
0
 62
     0
 10
4102.6457635894366831
 20
-35.4949822602149965
 30
0.0
 40
15.0
  1
663,4mm
  0
ENDBLK
  5
C49
  8
0
  0
BLOCK
  8
0
  2
*D88
 70
     1
 10
0.0
 20
0.0
 30
0.0
  3
*D88
  1

  0
LINE
  5
668
  8
0
 62
     0
 10
3830.6957635894391387
 20
-0.4908553807497358
 30
0.0
 11
4467.0957635894374107
 21
-0.4908553807497358
 31
0.0
  0
SOLID
  5
669
  8
0
 62
     0
 10
3830.6957635894391387
 20
2.0091446192502631
 30
0.0
 11
3830.6957635894391387
 21
-2.9908553807497351
 31
0.0
 12
3815.695763589436865
 22
-0.4908553807497358
 32
0.0
 13
3815.695763589436865
 23
-0.4908553807497358
 33
0.0
  0
SOLID
  5
66A
  8
0
 62
     0
 10
4467.0957635894374107
 20
2.0091446192502631
 30
0.0
 11
4467.0957635894374107
 21
-2.9908553807497351
 31
0.0
 12
4482.0957635894374107
 22
-0.4908553807497358
 32
0.0
 13
4482.0957635894374107
 23
-0.4908553807497358
 33
0.0
  0
INSERT
  5
66B
  8
0
  2
*U89
 10
0.0
 20
0.0
 30
0.0
  0
POINT
  5
66C
  8
DEFPOINTS
 62
     0
 10
3815.695763589436865
 20
-83.7386354880018189
 30
0.0
  0
POINT
  5
66D
  8
DEFPOINTS
 62
     0
 10
4482.0957635894374107
 20
-83.7386354880020463
 30
0.0
  0
POINT
  5
66E
  8
DEFPOINTS
 62
     0
 10
4482.0957635894374107
 20
-0.4908553807497358
 30
0.0
  0
ENDBLK
  5
670
  8
0
  0
BLOCK
  8
0
  2
*U89
 70
     1
 10
0.0
 20
0.0
 30
0.0
  3
*U89
  1

  0
TEXT
  5
C4B
  8
0
 62
     0
 10
4102.6457635894366831
 20
12.0091446192502609
 30
0.0
 40
15.0
  1
666,4mm
  0
ENDBLK
  5
C4D
  8
0
  0
BLOCK
  8
0
  2
*D90
 70
     1
 10
0.0
 20
0.0
 30
0.0
  3
*D90
  1

  0
LINE
  5
672
  8
0
 62
     0
 10
3784.2132819652388207
 20
-87.2386354880018047
 30
0.0
 11
3784.2132819652388207
 21
-568.2386354880020463
 31
0.0
  0
SOLID
  5
673
  8
0
 62
     0
 10
3781.7132819652388207
 20
-87.2386354880018047
 30
0.0
 11
3786.7132819652388207
 21
-87.2386354880018047
 31
0.0
 12
3784.2132819652388207
 22
-72.2386354880017905
 32
0.0
 13
3784.2132819652388207
 23
-72.2386354880017905
 33
0.0
  0
SOLID
  5
674
  8
0
 62
     0
 10
3781.7132819652388207
 20
-568.2386354880020463
 30
0.0
 11
3786.7132819652388207
 21
-568.2386354880020463
 31
0.0
 12
3784.2132819652388207
 22
-583.2386354880020463
 32
0.0
 13
3784.2132819652388207
 23
-583.2386354880020463
 33
0.0
  0
INSERT
  5
675
  8
0
  2
*U91
 10
0.0
 20
0.0
 30
0.0
  0
POINT
  5
676
  8
DEFPOINTS
 62
     0
 10
3828.6957635894377745
 20
-72.2386354880017905
 30
0.0
  0
POINT
  5
677
  8
DEFPOINTS
 62
     0
 10
3828.6957635894377745
 20
-583.2386354880020463
 30
0.0
  0
POINT
  5
678
  8
DEFPOINTS
 62
     0
 10
3784.2132819652388207
 20
-583.2386354880020463
 30
0.0
  0
ENDBLK
  5
67A
  8
0
  0
BLOCK
  8
0
  2
*U91
 70
     1
 10
0.0
 20
0.0
 30
0.0
  3
*U91
  1

  0
TEXT
  5
C4F
  8
0
 62
     0
 10
3774.2132819652388207
 20
-357.7386354880013073
 30
0.0
 40
15.0
  1
511mm
 50
90.0
  0
ENDBLK
  5
C51
  8
0
  0
BLOCK
  8
0
  2
*D92
 70
     1
 10
0.0
 20
0.0
 30
0.0
  3
*D92
  1

  0
LINE
  5
67C
  8
0
 62
     0
 10
3734.8751957450790542
 20
-85.7386354880017905
 30
0.0
 11
3734.8751957450790542
 21
-569.7386354880020463
 31
0.0
  0
SOLID
  5
67D
  8
0
 62
     0
 10
3732.3751957450790542
 20
-85.7386354880017905
 30
0.0
 11
3737.3751957450790542
 21
-85.7386354880017905
 31
0.0
 12
3734.8751957450790542
 22
-70.7386354880017905
 32
0.0
 13
3734.8751957450790542
 23
-70.7386354880017905
 33
0.0
  0
SOLID
  5
67E
  8
0
 62
     0
 10
3732.3751957450790542
 20
-569.7386354880020463
 30
0.0
 11
3737.3751957450790542
 21
-569.7386354880020463
 31
0.0
 12
3734.8751957450790542
 22
-584.7386354880020463
 32
0.0
 13
3734.8751957450790542
 23
-584.7386354880020463
 33
0.0
  0
INSERT
  5
67F
  8
0
  2
*U93
 10
0.0
 20
0.0
 30
0.0
  0
POINT
  5
680
  8
DEFPOINTS
 62
     0
 10
3828.6957635894377745
 20
-70.7386354880018189
 30
0.0
  0
POINT
  5
681
  8
DEFPOINTS
 62
     0
 10
3828.6957635894377745
 20
-584.7386354880020463
 30
0.0
  0
POINT
  5
682
  8
DEFPOINTS
 62
     0
 10
3734.8751957450790542
 20
-584.7386354880020463
 30
0.0
  0
ENDBLK
  5
684
  8
0
  0
BLOCK
  8
0
  2
*U93
 70
     1
 10
0.0
 20
0.0
 30
0.0
  3
*U93
  1

  0
TEXT
  5
C53
  8
0
 62
     0
 10
3724.8751957450790542
 20
-360.238635488001421
 30
0.0
 40
15.0
  1
514mm
 50
90.0
  0
ENDBLK
  5
C55
  8
0
  0
BLOCK
  8
0
  2
*D94
 70
     1
 10
0.0
 20
0.0
 30
0.0
  3
*D94
  1

  0
LINE
  5
727
  8
0
 62
     0
 10
3577.2091353566979706
 20
-48.0300822442686268
 30
0.0
 11
3669.7091353566979706
 21
-48.0300822442686268
 31
0.0
  0
LINE
  5
728
  8
0
 62
     0
 10
3669.7091353566979706
 20
-48.0300822442686268
 30
0.0
 11
3682.9343614924409849
 21
-55.1077509041076326
 31
0.0
  0
INSERT
  5
729
  8
0
  2
*U95
 10
0.0
 20
0.0
 30
0.0
  0
LINE
  5
72A
  8
0
 62
     0
 10
3706.298927665589872
 20
-67.611632203158706
 30
0.0
 11
3696.1595876281839992
 21
-62.1854195639466383
 31
0.0
  0
SOLID
  5
72B
  8
0
 62
     0
 10
3684.113972935746915
 20
-52.9035465481506506
 30
0.0
 11
3681.7547500491341452
 21
-57.3119552600649129
 31
0.0
 12
3696.1595876281839992
 22
-62.1854195639466383
 32
0.0
 13
3696.1595876281839992
 23
-62.1854195639466383
 33
0.0
  0
POINT
  5
72C
  8
DEFPOINTS
 62
     0
 10
3696.1595876281839992
 20
-62.1854195639466383
 30
0.0
  0
POINT
  5
72D
  8
DEFPOINTS
 62
     0
 10
3706.298927665589872
 20
-67.611632203158706
 30
0.0
  0
ENDBLK
  5
6A1
  8
0
  0
BLOCK
  8
0
  2
*U95
 70
     1
 10
0.0
 20
0.0
 30
0.0
  3
*U95
  1

  0
TEXT
  5
C6B
  8
0
 62
     0
 10
3577.2091353566979706
 20
-35.5300822442686695
 30
0.0
 40
15.0
  1
R11,5mm
  0
ENDBLK
  5
C6D
  8
0
  0
BLOCK
  8
0
  2
*D96
 70
     1
 10
0.0
 20
0.0
 30
0.0
  3
*D96
  1

  0
LINE
  5
720
  8
0
 62
     0
 10
3718.2192520533749303
 20
-46.5165376784898328
 30
0.0
 11
4605.6192520533741117
 21
-46.5165376784898328
 31
0.0
  0
SOLID
  5
721
  8
0
 62
     0
 10
3718.2192520533749303
 20
-44.0165376784898328
 30
0.0
 11
3718.2192520533749303
 21
-49.0165376784898328
 31
0.0
 12
3703.2192520533758398
 22
-46.5165376784898328
 32
0.0
 13
3703.2192520533758398
 23
-46.5165376784898328
 33
0.0
  0
SOLID
  5
722
  8
0
 62
     0
 10
4605.6192520533741117
 20
-44.0165376784898328
 30
0.0
 11
4605.6192520533741117
 21
-49.0165376784898328
 31
0.0
 12
4620.6192520533741117
 22
-46.5165376784898328
 32
0.0
 13
4620.6192520533741117
 23
-46.5165376784898328
 33
0.0
  0
INSERT
  5
723
  8
0
  2
*U97
 10
0.0
 20
0.0
 30
0.0
  0
POINT
  5
724
  8
DEFPOINTS
 62
     0
 10
3703.2192520533758398
 20
-75.4441373710133121
 30
0.0
  0
POINT
  5
725
  8
DEFPOINTS
 62
     0
 10
4620.6192520533741117
 20
-75.4441373710133121
 30
0.0
  0
POINT
  5
726
  8
DEFPOINTS
 62
     0
 10
4620.6192520533741117
 20
-46.5165376784898328
 30
0.0
  0
ENDBLK
  5
6D3
  8
0
  0
BLOCK
  8
0
  2
*U97
 70
     1
 10
0.0
 20
0.0
 30
0.0
  3
*U97
  1

  0
TEXT
  5
C67
  8
0
 62
     0
 10
4118.1692520533742936
 20
-34.0165376784898399
 30
0.0
 40
15.0
  1
917,4mm
  0
ENDBLK
  5
C69
  8
0
  0
BLOCK
  8
0
  2
*D98
 70
     1
 10
0.0
 20
0.0
 30
0.0
  3
*D98
  1

  0
LINE
  5
6E9
  8
0
 62
     0
 10
4607.1192520533741117
 20
1.5129098011539091
 30
0.0
 11
3716.7192520533749303
 21
1.5129098011539091
 31
0.0
  0
SOLID
  5
6EA
  8
0
 62
     0
 10
4607.1192520533741117
 20
4.0129098011539091
 30
0.0
 11
4607.1192520533741117
 21
-0.9870901988460898
 31
0.0
 12
4622.1192520533741117
 22
1.5129098011539091
 32
0.0
 13
4622.1192520533741117
 23
1.5129098011539091
 33
0.0
  0
SOLID
  5
6EB
  8
0
 62
     0
 10
3716.7192520533749303
 20
4.0129098011539091
 30
0.0
 11
3716.7192520533749303
 21
-0.9870901988460898
 31
0.0
 12
3701.7192520533758398
 22
1.5129098011539091
 32
0.0
 13
3701.7192520533758398
 23
1.5129098011539091
 33
0.0
  0
INSERT
  5
6EC
  8
0
  2
*U99
 10
0.0
 20
0.0
 30
0.0
  0
POINT
  5
6ED
  8
DEFPOINTS
 62
     0
 10
4622.1192520533741117
 20
-75.4441373710133121
 30
0.0
  0
POINT
  5
6EE
  8
DEFPOINTS
 62
     0
 10
3701.7192520533758398
 20
-75.4441373710132837
 30
0.0
  0
POINT
  5
6EF
  8
DEFPOINTS
 62
     0
 10
3701.7192520533758398
 20
1.5129098011539091
 30
0.0
  0
ENDBLK
  5
6E7
  8
0
  0
BLOCK
  8
0
  2
*U99
 70
     1
 10
0.0
 20
0.0
 30
0.0
  3
*U99
  1

  0
TEXT
  5
C5B
  8
0
 62
     0
 10
4116.9192520533733841
 20
14.0129098011539099
 30
0.0
 40
15.0
  1
920,4mm
  0
ENDBLK
  5
C5D
  8
0
  0
BLOCK
  8
0
  2
*D100
 70
     1
 10
0.0
 20
0.0
 30
0.0
  3
*D100
  1

  0
LINE
  5
719
  8
0
 62
     0
 10
3680.6884281210218433
 20
-78.9441373710133121
 30
0.0
 11
3680.6884281210218433
 21
-559.9441373710133121
 31
0.0
  0
SOLID
  5
71A
  8
0
 62
     0
 10
3678.1884281210218433
 20
-78.9441373710133121
 30
0.0
 11
3683.1884281210218433
 21
-78.9441373710133121
 31
0.0
 12
3680.6884281210218433
 22
-63.9441373710133192
 32
0.0
 13
3680.6884281210218433
 23
-63.9441373710133192
 33
0.0
  0
SOLID
  5
71B
  8
0
 62
     0
 10
3678.1884281210218433
 20
-559.9441373710133121
 30
0.0
 11
3683.1884281210218433
 21
-559.9441373710133121
 31
0.0
 12
3680.6884281210218433
 22
-574.9441373710133121
 32
0.0
 13
3680.6884281210218433
 23
-574.9441373710133121
 33
0.0
  0
INSERT
  5
71C
  8
0
  2
*U101
 10
0.0
 20
0.0
 30
0.0
  0
POINT
  5
71D
  8
DEFPOINTS
 62
     0
 10
3714.7192520533758398
 20
-63.9441373710133192
 30
0.0
  0
POINT
  5
71E
  8
DEFPOINTS
 62
     0
 10
3714.7192520533740208
 20
-574.9441373710133121
 30
0.0
  0
POINT
  5
71F
  8
DEFPOINTS
 62
     0
 10
3680.6884281210218433
 20
-574.9441373710133121
 30
0.0
  0
ENDBLK
  5
6FB
  8
0
  0
BLOCK
  8
0
  2
*U101
 70
     1
 10
0.0
 20
0.0
 30
0.0
  3
*U101
  1

  0
TEXT
  5
C63
  8
0
 62
     0
 10
3670.6884281210209338
 20
-349.4441373710125731
 30
0.0
 40
15.0
  1
511mm
 50
90.0
  0
ENDBLK
  5
C65
  8
0
  0
BLOCK
  8
0
  2
*D102
 70
     1
 10
0.0
 20
0.0
 30
0.0
  3
*D102
  1

  0
LINE
  5
711
  8
0
 62
     0
 10
3636.8222223661691714
 20
-77.4441373710132837
 30
0.0
 11
3636.8222223661691714
 21
-561.4441373710133121
 31
0.0
  0
SOLID
  5
712
  8
0
 62
     0
 10
3634.3222223661691714
 20
-77.4441373710132837
 30
0.0
 11
3639.3222223661678072
 21
-77.4441373710132837
 31
0.0
 12
3636.8222223661691714
 22
-62.4441373710132908
 32
0.0
 13
3636.8222223661691714
 23
-62.4441373710132908
 33
0.0
  0
SOLID
  5
713
  8
0
 62
     0
 10
3634.3222223661691714
 20
-561.4441373710133121
 30
0.0
 11
3639.3222223661678072
 21
-561.4441373710133121
 31
0.0
 12
3636.8222223661691714
 22
-576.4441373710133121
 32
0.0
 13
3636.8222223661691714
 23
-576.4441373710133121
 33
0.0
  0
INSERT
  5
714
  8
0
  2
*U103
 10
0.0
 20
0.0
 30
0.0
  0
POINT
  5
715
  8
DEFPOINTS
 62
     0
 10
3714.7192520533758398
 20
-62.4441373710133192
 30
0.0
  0
POINT
  5
716
  8
DEFPOINTS
 62
     0
 10
3714.7192520533740208
 20
-576.4441373710133121
 30
0.0
  0
POINT
  5
717
  8
DEFPOINTS
 62
     0
 10
3636.8222223661691714
 20
-576.4441373710133121
 30
0.0
  0
ENDBLK
  5
70F
  8
0
  0
BLOCK
  8
0
  2
*U103
 70
     1
 10
0.0
 20
0.0
 30
0.0
  3
*U103
  1

  0
TEXT
  5
C5F
  8
0
 62
     0
 10
3626.8222223661678072
 20
-351.9441373710125731
 30
0.0
 40
15.0
  1
514mm
 50
90.0
  0
ENDBLK
  5
C61
  8
0
  0
BLOCK
  8
0
  2
*D104
 70
     1
 10
0.0
 20
0.0
 30
0.0
  3
*D104
  1

  0
LINE
  5
748
  8
0
 62
     0
 10
3577.2091353566979706
 20
-48.0300822442686268
 30
0.0
 11
3669.7091353566979706
 21
-48.0300822442686268
 31
0.0
  0
LINE
  5
749
  8
0
 62
     0
 10
3669.7091353566979706
 20
-48.0300822442686268
 30
0.0
 11
3682.9343614924409849
 21
-55.1077509041076326
 31
0.0
  0
INSERT
  5
74A
  8
0
  2
*U105
 10
0.0
 20
0.0
 30
0.0
  0
LINE
  5
74B
  8
0
 62
     0
 10
3706.298927665589872
 20
-67.611632203158706
 30
0.0
 11
3696.1595876281839992
 21
-62.1854195639466383
 31
0.0
  0
SOLID
  5
74C
  8
0
 62
     0
 10
3684.113972935746915
 20
-52.9035465481506506
 30
0.0
 11
3681.7547500491341452
 21
-57.3119552600649129
 31
0.0
 12
3696.1595876281839992
 22
-62.1854195639466383
 32
0.0
 13
3696.1595876281839992
 23
-62.1854195639466383
 33
0.0
  0
POINT
  5
74D
  8
DEFPOINTS
 62
     0
 10
3696.1595876281839992
 20
-62.1854195639466383
 30
0.0
  0
POINT
  5
74E
  8
DEFPOINTS
 62
     0
 10
3706.298927665589872
 20
-67.611632203158706
 30
0.0
  0
ENDBLK
  5
74F
  8
0
  0
BLOCK
  8
0
  2
*U105
 70
     1
 10
0.0
 20
0.0
 30
0.0
  3
*U105
  1

  0
TEXT
  5
C8F
  8
0
 62
     0
 10
3577.2091353566979706
 20
-35.5300822442686695
 30
0.0
 40
15.0
  1
R11,5mm
  0
ENDBLK
  5
C91
  8
0
  0
BLOCK
  8
0
  2
*D106
 70
     1
 10
0.0
 20
0.0
 30
0.0
  3
*D106
  1

  0
LINE
  5
752
  8
0
 62
     0
 10
3718.2192520533749303
 20
-46.5165376784898328
 30
0.0
 11
4605.6192520533741117
 21
-46.5165376784898328
 31
0.0
  0
SOLID
  5
753
  8
0
 62
     0
 10
3718.2192520533749303
 20
-44.0165376784898328
 30
0.0
 11
3718.2192520533749303
 21
-49.0165376784898328
 31
0.0
 12
3703.2192520533758398
 22
-46.5165376784898328
 32
0.0
 13
3703.2192520533758398
 23
-46.5165376784898328
 33
0.0
  0
SOLID
  5
754
  8
0
 62
     0
 10
4605.6192520533741117
 20
-44.0165376784898328
 30
0.0
 11
4605.6192520533741117
 21
-49.0165376784898328
 31
0.0
 12
4620.6192520533741117
 22
-46.5165376784898328
 32
0.0
 13
4620.6192520533741117
 23
-46.5165376784898328
 33
0.0
  0
INSERT
  5
755
  8
0
  2
*U107
 10
0.0
 20
0.0
 30
0.0
  0
POINT
  5
756
  8
DEFPOINTS
 62
     0
 10
3703.2192520533758398
 20
-75.4441373710133121
 30
0.0
  0
POINT
  5
757
  8
DEFPOINTS
 62
     0
 10
4620.6192520533741117
 20
-75.4441373710133121
 30
0.0
  0
POINT
  5
758
  8
DEFPOINTS
 62
     0
 10
4620.6192520533741117
 20
-46.5165376784898328
 30
0.0
  0
ENDBLK
  5
759
  8
0
  0
BLOCK
  8
0
  2
*U107
 70
     1
 10
0.0
 20
0.0
 30
0.0
  3
*U107
  1

  0
TEXT
  5
C93
  8
0
 62
     0
 10
4118.1692520533742936
 20
-34.0165376784898399
 30
0.0
 40
15.0
  1
917,4mm
  0
ENDBLK
  5
C95
  8
0
  0
BLOCK
  8
0
  2
*D108
 70
     1
 10
0.0
 20
0.0
 30
0.0
  3
*D108
  1

  0
LINE
  5
75C
  8
0
 62
     0
 10
4607.1192520533741117
 20
1.5129098011539091
 30
0.0
 11
3716.7192520533749303
 21
1.5129098011539091
 31
0.0
  0
SOLID
  5
75D
  8
0
 62
     0
 10
4607.1192520533741117
 20
4.0129098011539091
 30
0.0
 11
4607.1192520533741117
 21
-0.9870901988460898
 31
0.0
 12
4622.1192520533741117
 22
1.5129098011539091
 32
0.0
 13
4622.1192520533741117
 23
1.5129098011539091
 33
0.0
  0
SOLID
  5
75E
  8
0
 62
     0
 10
3716.7192520533749303
 20
4.0129098011539091
 30
0.0
 11
3716.7192520533749303
 21
-0.9870901988460898
 31
0.0
 12
3701.7192520533758398
 22
1.5129098011539091
 32
0.0
 13
3701.7192520533758398
 23
1.5129098011539091
 33
0.0
  0
INSERT
  5
75F
  8
0
  2
*U109
 10
0.0
 20
0.0
 30
0.0
  0
POINT
  5
760
  8
DEFPOINTS
 62
     0
 10
4622.1192520533741117
 20
-75.4441373710133121
 30
0.0
  0
POINT
  5
761
  8
DEFPOINTS
 62
     0
 10
3701.7192520533758398
 20
-75.4441373710132837
 30
0.0
  0
POINT
  5
762
  8
DEFPOINTS
 62
     0
 10
3701.7192520533758398
 20
1.5129098011539091
 30
0.0
  0
ENDBLK
  5
763
  8
0
  0
BLOCK
  8
0
  2
*U109
 70
     1
 10
0.0
 20
0.0
 30
0.0
  3
*U109
  1

  0
TEXT
  5
C97
  8
0
 62
     0
 10
4116.9192520533733841
 20
14.0129098011539099
 30
0.0
 40
15.0
  1
920,4mm
  0
ENDBLK
  5
C99
  8
0
  0
BLOCK
  8
0
  2
*D110
 70
     1
 10
0.0
 20
0.0
 30
0.0
  3
*D110
  1

  0
LINE
  5
766
  8
0
 62
     0
 10
3680.6884281210218433
 20
-78.9441373710133121
 30
0.0
 11
3680.6884281210218433
 21
-559.9441373710133121
 31
0.0
  0
SOLID
  5
767
  8
0
 62
     0
 10
3678.1884281210218433
 20
-78.9441373710133121
 30
0.0
 11
3683.1884281210218433
 21
-78.9441373710133121
 31
0.0
 12
3680.6884281210218433
 22
-63.9441373710133192
 32
0.0
 13
3680.6884281210218433
 23
-63.9441373710133192
 33
0.0
  0
SOLID
  5
768
  8
0
 62
     0
 10
3678.1884281210218433
 20
-559.9441373710133121
 30
0.0
 11
3683.1884281210218433
 21
-559.9441373710133121
 31
0.0
 12
3680.6884281210218433
 22
-574.9441373710133121
 32
0.0
 13
3680.6884281210218433
 23
-574.9441373710133121
 33
0.0
  0
INSERT
  5
769
  8
0
  2
*U111
 10
0.0
 20
0.0
 30
0.0
  0
POINT
  5
76A
  8
DEFPOINTS
 62
     0
 10
3714.7192520533758398
 20
-63.9441373710133192
 30
0.0
  0
POINT
  5
76B
  8
DEFPOINTS
 62
     0
 10
3714.7192520533740208
 20
-574.9441373710133121
 30
0.0
  0
POINT
  5
76C
  8
DEFPOINTS
 62
     0
 10
3680.6884281210218433
 20
-574.9441373710133121
 30
0.0
  0
ENDBLK
  5
76D
  8
0
  0
BLOCK
  8
0
  2
*U111
 70
     1
 10
0.0
 20
0.0
 30
0.0
  3
*U111
  1

  0
TEXT
  5
C9B
  8
0
 62
     0
 10
3670.6884281210209338
 20
-349.4441373710125731
 30
0.0
 40
15.0
  1
511mm
 50
90.0
  0
ENDBLK
  5
C9D
  8
0
  0
BLOCK
  8
0
  2
*D112
 70
     1
 10
0.0
 20
0.0
 30
0.0
  3
*D112
  1

  0
LINE
  5
770
  8
0
 62
     0
 10
3636.8222223661691714
 20
-77.4441373710132837
 30
0.0
 11
3636.8222223661691714
 21
-561.4441373710133121
 31
0.0
  0
SOLID
  5
771
  8
0
 62
     0
 10
3634.3222223661691714
 20
-77.4441373710132837
 30
0.0
 11
3639.3222223661678072
 21
-77.4441373710132837
 31
0.0
 12
3636.8222223661691714
 22
-62.4441373710132908
 32
0.0
 13
3636.8222223661691714
 23
-62.4441373710132908
 33
0.0
  0
SOLID
  5
772
  8
0
 62
     0
 10
3634.3222223661691714
 20
-561.4441373710133121
 30
0.0
 11
3639.3222223661678072
 21
-561.4441373710133121
 31
0.0
 12
3636.8222223661691714
 22
-576.4441373710133121
 32
0.0
 13
3636.8222223661691714
 23
-576.4441373710133121
 33
0.0
  0
INSERT
  5
773
  8
0
  2
*U113
 10
0.0
 20
0.0
 30
0.0
  0
POINT
  5
774
  8
DEFPOINTS
 62
     0
 10
3714.7192520533758398
 20
-62.4441373710133192
 30
0.0
  0
POINT
  5
775
  8
DEFPOINTS
 62
     0
 10
3714.7192520533740208
 20
-576.4441373710133121
 30
0.0
  0
POINT
  5
776
  8
DEFPOINTS
 62
     0
 10
3636.8222223661691714
 20
-576.4441373710133121
 30
0.0
  0
ENDBLK
  5
777
  8
0
  0
BLOCK
  8
0
  2
*U113
 70
     1
 10
0.0
 20
0.0
 30
0.0
  3
*U113
  1

  0
TEXT
  5
C9F
  8
0
 62
     0
 10
3626.8222223661678072
 20
-351.9441373710125731
 30
0.0
 40
15.0
  1
514mm
 50
90.0
  0
ENDBLK
  5
CA1
  8
0
  0
BLOCK
  8
0
  2
*D114
 70
     1
 10
0.0
 20
0.0
 30
0.0
  3
*D114
  1

  0
LINE
  5
812
  8
0
 62
     0
 10
5531.7629011975477624
 20
-48.0300828453446229
 30
0.0
 11
5624.2629011975523099
 21
-48.0300828453446229
 31
0.0
  0
LINE
  5
813
  8
0
 62
     0
 10
5624.2629011975523099
 20
-48.0300828453446229
 30
0.0
 11
5637.488127333292141
 21
-55.1077515051838418
 31
0.0
  0
INSERT
  5
814
  8
0
  2
*U115
 10
0.0
 20
0.0
 30
0.0
  0
LINE
  5
815
  8
0
 62
     0
 10
5660.8526935064401187
 20
-67.6116328042348869
 30
0.0
 11
5650.7133534690347005
 21
-62.1854201650230607
 31
0.0
  0
SOLID
  5
816
  8
0
 62
     0
 10
5638.6677387765967069
 20
-52.903547149226597
 30
0.0
 11
5636.3085158899866656
 21
-57.3119558611406319
 31
0.0
 12
5650.7133534690347005
 22
-62.1854201650230607
 32
0.0
 13
5650.7133534690347005
 23
-62.1854201650230607
 33
0.0
  0
POINT
  5
817
  8
DEFPOINTS
 62
     0
 10
5650.7133534690347005
 20
-62.1854201650230607
 30
0.0
  0
POINT
  5
818
  8
DEFPOINTS
 62
     0
 10
5660.8526935064401187
 20
-67.6116328042348869
 30
0.0
  0
ENDBLK
  5
811
  8
0
  0
BLOCK
  8
0
  2
*U115
 70
     1
 10
0.0
 20
0.0
 30
0.0
  3
*U115
  1

  0
TEXT
  5
D21
  8
0
 62
     0
 10
5531.7629011975486719
 20
-35.5300828453446229
 30
0.0
 40
15.0
  1
R11,5mm
  0
ENDBLK
  5
D23
  8
0
  0
BLOCK
  8
0
  2
*D116
 70
     1
 10
0.0
 20
0.0
 30
0.0
  3
*D116
  1

  0
LINE
  5
81A
  8
0
 62
     0
 10
5672.7730178942247221
 20
-46.5165382795657933
 30
0.0
 11
6560.1730178942252678
 21
-46.5165382795657933
 31
0.0
  0
SOLID
  5
81B
  8
0
 62
     0
 10
5672.7730178942247221
 20
-44.0165382795657933
 30
0.0
 11
5672.7730178942247221
 21
-49.0165382795657933
 31
0.0
 12
5657.7730178942256316
 22
-46.5165382795657933
 32
0.0
 13
5657.7730178942256316
 23
-46.5165382795657933
 33
0.0
  0
SOLID
  5
81C
  8
0
 62
     0
 10
6560.1730178942252678
 20
-44.0165382795657933
 30
0.0
 11
6560.1730178942252678
 21
-49.0165382795657933
 31
0.0
 12
6575.1730178942243583
 22
-46.5165382795657933
 32
0.0
 13
6575.1730178942243583
 23
-46.5165382795657933
 33
0.0
  0
INSERT
  5
81D
  8
0
  2
*U117
 10
0.0
 20
0.0
 30
0.0
  0
POINT
  5
81E
  8
DEFPOINTS
 62
     0
 10
5657.7730178942256316
 20
-75.4441379720892655
 30
0.0
  0
POINT
  5
81F
  8
DEFPOINTS
 62
     0
 10
6575.1730178942243583
 20
-75.4441379720892655
 30
0.0
  0
POINT
  5
820
  8
DEFPOINTS
 62
     0
 10
6575.1730178942243583
 20
-46.5165382795657933
 30
0.0
  0
ENDBLK
  5
822
  8
0
  0
BLOCK
  8
0
  2
*U117
 70
     1
 10
0.0
 20
0.0
 30
0.0
  3
*U117
  1

  0
TEXT
  5
D25
  8
0
 62
     0
 10
6072.7230178942263592
 20
-34.0165382795657933
 30
0.0
 40
15.0
  1
917,4mm
  0
ENDBLK
  5
D27
  8
0
  0
BLOCK
  8
0
  2
*D118
 70
     1
 10
0.0
 20
0.0
 30
0.0
  3
*D118
  1

  0
LINE
  5
824
  8
0
 62
     0
 10
6561.6730178942252678
 20
1.512909200077956
 30
0.0
 11
5671.2730178942247221
 21
1.512909200077956
 31
0.0
  0
SOLID
  5
825
  8
0
 62
     0
 10
6561.6730178942252678
 20
4.0129092000779512
 30
0.0
 11
6561.6730178942252678
 21
-0.9870907999220436
 31
0.0
 12
6576.6730178942243583
 22
1.512909200077956
 32
0.0
 13
6576.6730178942243583
 23
1.512909200077956
 33
0.0
  0
SOLID
  5
826
  8
0
 62
     0
 10
5671.2730178942247221
 20
4.0129092000779512
 30
0.0
 11
5671.2730178942247221
 21
-0.9870907999220436
 31
0.0
 12
5656.2730178942256316
 22
1.512909200077956
 32
0.0
 13
5656.2730178942256316
 23
1.512909200077956
 33
0.0
  0
INSERT
  5
827
  8
0
  2
*U119
 10
0.0
 20
0.0
 30
0.0
  0
POINT
  5
828
  8
DEFPOINTS
 62
     0
 10
6576.6730178942243583
 20
-75.4441379720892655
 30
0.0
  0
POINT
  5
829
  8
DEFPOINTS
 62
     0
 10
5656.2730178942256316
 20
-75.4441379720892655
 30
0.0
  0
POINT
  5
82A
  8
DEFPOINTS
 62
     0
 10
5656.2730178942256316
 20
1.512909200077956
 30
0.0
  0
ENDBLK
  5
82C
  8
0
  0
BLOCK
  8
0
  2
*U119
 70
     1
 10
0.0
 20
0.0
 30
0.0
  3
*U119
  1

  0
TEXT
  5
D29
  8
0
 62
     0
 10
6071.4730178942236307
 20
14.0129092000779405
 30
0.0
 40
15.0
  1
920,4mm
  0
ENDBLK
  5
D2B
  8
0
  0
BLOCK
  8
0
  2
*D120
 70
     1
 10
0.0
 20
0.0
 30
0.0
  3
*D120
  1

  0
LINE
  5
82E
  8
0
 62
     0
 10
5635.2421939618734541
 20
-78.9441379720892655
 30
0.0
 11
5635.2421939618734541
 21
-559.9441379720891518
 31
0.0
  0
SOLID
  5
82F
  8
0
 62
     0
 10
5632.7421939618707256
 20
-78.9441379720892655
 30
0.0
 11
5637.7421939618734541
 21
-78.9441379720892655
 31
0.0
 12
5635.2421939618734541
 22
-63.9441379720892584
 32
0.0
 13
5635.2421939618734541
 23
-63.9441379720892584
 33
0.0
  0
SOLID
  5
830
  8
0
 62
     0
 10
5632.7421939618707256
 20
-559.9441379720891518
 30
0.0
 11
5637.7421939618734541
 21
-559.9441379720891518
 31
0.0
 12
5635.2421939618734541
 22
-574.9441379720891518
 32
0.0
 13
5635.2421939618734541
 23
-574.9441379720891518
 33
0.0
  0
INSERT
  5
831
  8
0
  2
*U121
 10
0.0
 20
0.0
 30
0.0
  0
POINT
  5
832
  8
DEFPOINTS
 62
     0
 10
5669.2730178942256316
 20
-63.9441379720892584
 30
0.0
  0
POINT
  5
833
  8
DEFPOINTS
 62
     0
 10
5669.2730178942238126
 20
-574.9441379720891518
 30
0.0
  0
POINT
  5
834
  8
DEFPOINTS
 62
     0
 10
5635.2421939618734541
 20
-574.9441379720891518
 30
0.0
  0
ENDBLK
  5
836
  8
0
  0
BLOCK
  8
0
  2
*U121
 70
     1
 10
0.0
 20
0.0
 30
0.0
  3
*U121
  1

  0
TEXT
  5
D2D
  8
0
 62
     0
 10
5625.2421939618743636
 20
-349.4441379720884129
 30
0.0
 40
15.0
  1
511mm
 50
90.0
  0
ENDBLK
  5
D2F
  8
0
  0
BLOCK
  8
0
  2
*D122
 70
     1
 10
0.0
 20
0.0
 30
0.0
  3
*D122
  1

  0
LINE
  5
838
  8
0
 62
     0
 10
5591.3759882070180538
 20
-77.4441379720892371
 30
0.0
 11
5591.3759882070180538
 21
-561.4441379720892655
 31
0.0
  0
SOLID
  5
839
  8
0
 62
     0
 10
5588.8759882070180538
 20
-77.4441379720892371
 30
0.0
 11
5593.8759882070180538
 21
-77.4441379720892371
 31
0.0
 12
5591.3759882070180538
 22
-62.4441379720892371
 32
0.0
 13
5591.3759882070180538
 23
-62.4441379720892371
 33
0.0
  0
SOLID
  5
83A
  8
0
 62
     0
 10
5588.8759882070180538
 20
-561.4441379720892655
 30
0.0
 11
5593.8759882070180538
 21
-561.4441379720892655
 31
0.0
 12
5591.3759882070180538
 22
-576.4441379720891518
 32
0.0
 13
5591.3759882070180538
 23
-576.4441379720891518
 33
0.0
  0
INSERT
  5
83B
  8
0
  2
*U123
 10
0.0
 20
0.0
 30
0.0
  0
POINT
  5
83C
  8
DEFPOINTS
 62
     0
 10
5669.2730178942256316
 20
-62.4441379720892726
 30
0.0
  0
POINT
  5
83D
  8
DEFPOINTS
 62
     0
 10
5669.2730178942238126
 20
-576.4441379720891518
 30
0.0
  0
POINT
  5
83E
  8
DEFPOINTS
 62
     0
 10
5591.3759882070180538
 20
-576.4441379720891518
 30
0.0
  0
ENDBLK
  5
840
  8
0
  0
BLOCK
  8
0
  2
*U123
 70
     1
 10
0.0
 20
0.0
 30
0.0
  3
*U123
  1

  0
TEXT
  5
D31
  8
0
 62
     0
 10
5581.3759882070171443
 20
-351.9441379720884129
 30
0.0
 40
15.0
  1
514mm
 50
90.0
  0
ENDBLK
  5
D33
  8
0
  0
BLOCK
  8
0
  2
*D124
 70
     1
 10
0.0
 20
0.0
 30
0.0
  3
*D124
  1

  0
LINE
  5
89B
  8
0
 62
     0
 10
5475.3009914100248352
 20
-50.8157644204407006
 30
0.0
 11
5567.8009914100248352
 21
-50.8157644204407006
 31
0.0
  0
LINE
  5
89C
  8
0
 62
     0
 10
5567.8009914100248352
 20
-50.8157644204407006
 30
0.0
 11
5619.2362470176976785
 21
-64.5626680308330378
 31
0.0
  0
INSERT
  5
89D
  8
0
  2
*U125
 10
0.0
 20
0.0
 30
0.0
  0
LINE
  5
89E
  8
0
 62
     0
 10
5644.8376478174359363
 20
-71.4050562901513644
 30
0.0
 11
5633.7276059609448566
 21
-68.4357179889377534
 31
0.0
  0
SOLID
  5
89F
  8
0
 62
     0
 10
5619.8817553440503616
 20
-62.1474415402917586
 30
0.0
 11
5618.5907386913477239
 21
-66.9778945213740826
 31
0.0
 12
5633.7276059609448566
 22
-68.4357179889377534
 32
0.0
 13
5633.7276059609448566
 23
-68.4357179889377534
 33
0.0
  0
POINT
  5
8A0
  8
DEFPOINTS
 62
     0
 10
5633.7276059609448566
 20
-68.4357179889377534
 30
0.0
  0
POINT
  5
8A1
  8
DEFPOINTS
 62
     0
 10
5644.8376478174359363
 20
-71.4050562901513644
 30
0.0
  0
ENDBLK
  5
853
  8
0
  0
BLOCK
  8
0
  2
*U125
 70
     1
 10
0.0
 20
0.0
 30
0.0
  3
*U125
  1

  0
TEXT
  5
D3D
  8
0
 62
     0
 10
5475.3009914100239257
 20
-38.3157644204404804
 30
0.0
 40
15.0
  1
R11,5mm
  0
ENDBLK
  5
D3F
  8
0
  0
BLOCK
  8
0
  2
*D126
 70
     1
 10
0.0
 20
0.0
 30
0.0
  3
*D126
  1

  0
LINE
  5
869
  8
0
 62
     0
 10
5657.3244408584423581
 20
-43.0740270819824218
 30
0.0
 11
6443.124440858444359
 21
-43.0740270819824218
 31
0.0
  0
SOLID
  5
86A
  8
0
 62
     0
 10
5657.3244408584423581
 20
-40.5740270819824218
 30
0.0
 11
5657.3244408584423581
 21
-45.5740270819824218
 31
0.0
 12
5642.3244408584423581
 22
-43.0740270819824218
 32
0.0
 13
5642.3244408584423581
 23
-43.0740270819824218
 33
0.0
  0
SOLID
  5
86B
  8
0
 62
     0
 10
6443.124440858444359
 20
-40.5740270819824218
 30
0.0
 11
6443.124440858444359
 21
-45.5740270819824218
 31
0.0
 12
6458.1244408584416306
 22
-43.0740270819824218
 32
0.0
 13
6458.1244408584416306
 23
-43.0740270819824218
 33
0.0
  0
INSERT
  5
86C
  8
0
  2
*U127
 10
0.0
 20
0.0
 30
0.0
  0
POINT
  5
86D
  8
DEFPOINTS
 62
     0
 10
5642.3244408584423581
 20
-78.5805389107221828
 30
0.0
  0
POINT
  5
86E
  8
DEFPOINTS
 62
     0
 10
6458.1244408584416306
 20
-78.580538910722268
 30
0.0
  0
POINT
  5
86F
  8
DEFPOINTS
 62
     0
 10
6458.1244408584416306
 20
-43.0740270819824218
 30
0.0
  0
ENDBLK
  5
867
  8
0
  0
BLOCK
  8
0
  2
*U127
 70
     1
 10
0.0
 20
0.0
 30
0.0
  3
*U127
  1

  0
TEXT
  5
D35
  8
0
 62
     0
 10
6006.4744408584419944
 20
-30.5740270819824111
 30
0.0
 40
15.0
  1
815,8mm
  0
ENDBLK
  5
D37
  8
0
  0
BLOCK
  8
0
  2
*D128
 70
     1
 10
0.0
 20
0.0
 30
0.0
  3
*D128
  1

  0
LINE
  5
87D
  8
0
 62
     0
 10
5602.9580566763961542
 20
-82.0805389107221828
 30
0.0
 11
5602.9580566763961542
 21
-563.0805389107222254
 31
0.0
  0
SOLID
  5
87E
  8
0
 62
     0
 10
5600.4580566763943352
 20
-82.0805389107221828
 30
0.0
 11
5605.4580566763943352
 21
-82.0805389107221828
 31
0.0
 12
5602.9580566763961542
 22
-67.0805389107222254
 32
0.0
 13
5602.9580566763961542
 23
-67.0805389107222254
 33
0.0
  0
SOLID
  5
87F
  8
0
 62
     0
 10
5600.4580566763943352
 20
-563.0805389107222254
 30
0.0
 11
5605.4580566763943352
 21
-563.0805389107222254
 31
0.0
 12
5602.9580566763961542
 22
-578.0805389107221117
 32
0.0
 13
5602.9580566763961542
 23
-578.0805389107221117
 33
0.0
  0
INSERT
  5
880
  8
0
  2
*U129
 10
0.0
 20
0.0
 30
0.0
  0
POINT
  5
881
  8
DEFPOINTS
 62
     0
 10
5653.8244408584432676
 20
-67.0805389107222254
 30
0.0
  0
POINT
  5
882
  8
DEFPOINTS
 62
     0
 10
5653.8244408584432676
 20
-578.0805389107221117
 30
0.0
  0
POINT
  5
883
  8
DEFPOINTS
 62
     0
 10
5602.9580566763961542
 20
-578.0805389107221117
 30
0.0
  0
ENDBLK
  5
87B
  8
0
  0
BLOCK
  8
0
  2
*U129
 70
     1
 10
0.0
 20
0.0
 30
0.0
  3
*U129
  1

  0
TEXT
  5
D39
  8
0
 62
     0
 10
5592.9580566763943352
 20
-352.5805389107213159
 30
0.0
 40
15.0
  1
511mm
 50
90.0
  0
ENDBLK
  5
D3B
  8
0
  0
BLOCK
  8
0
  2
*D130
 70
     1
 10
0.0
 20
0.0
 30
0.0
  3
*D130
  1

  0
LINE
  5
8A4
  8
0
 62
     0
 10
5475.3009914100248352
 20
-50.8157644204407006
 30
0.0
 11
5567.8009914100248352
 21
-50.8157644204407006
 31
0.0
  0
LINE
  5
8A5
  8
0
 62
     0
 10
5567.8009914100248352
 20
-50.8157644204407006
 30
0.0
 11
5619.2362470176976785
 21
-64.5626680308330378
 31
0.0
  0
INSERT
  5
8A6
  8
0
  2
*U131
 10
0.0
 20
0.0
 30
0.0
  0
LINE
  5
8A7
  8
0
 62
     0
 10
5644.8376478174359363
 20
-71.4050562901513644
 30
0.0
 11
5633.7276059609448566
 21
-68.4357179889377534
 31
0.0
  0
SOLID
  5
8A8
  8
0
 62
     0
 10
5619.8817553440503616
 20
-62.1474415402917586
 30
0.0
 11
5618.5907386913477239
 21
-66.9778945213740826
 31
0.0
 12
5633.7276059609448566
 22
-68.4357179889377534
 32
0.0
 13
5633.7276059609448566
 23
-68.4357179889377534
 33
0.0
  0
POINT
  5
8A9
  8
DEFPOINTS
 62
     0
 10
5633.7276059609448566
 20
-68.4357179889377534
 30
0.0
  0
POINT
  5
8AA
  8
DEFPOINTS
 62
     0
 10
5644.8376478174359363
 20
-71.4050562901513644
 30
0.0
  0
ENDBLK
  5
8AB
  8
0
  0
BLOCK
  8
0
  2
*U131
 70
     1
 10
0.0
 20
0.0
 30
0.0
  3
*U131
  1

  0
TEXT
  5
D41
  8
0
 62
     0
 10
5475.3009914100239257
 20
-38.3157644204404804
 30
0.0
 40
15.0
  1
R11,5mm
  0
ENDBLK
  5
D43
  8
0
  0
BLOCK
  8
0
  2
*D132
 70
     1
 10
0.0
 20
0.0
 30
0.0
  3
*D132
  1

  0
LINE
  5
8AE
  8
0
 62
     0
 10
5657.3244408584423581
 20
-43.0740270819824218
 30
0.0
 11
6443.124440858444359
 21
-43.0740270819824218
 31
0.0
  0
SOLID
  5
8AF
  8
0
 62
     0
 10
5657.3244408584423581
 20
-40.5740270819824218
 30
0.0
 11
5657.3244408584423581
 21
-45.5740270819824218
 31
0.0
 12
5642.3244408584423581
 22
-43.0740270819824218
 32
0.0
 13
5642.3244408584423581
 23
-43.0740270819824218
 33
0.0
  0
SOLID
  5
8B0
  8
0
 62
     0
 10
6443.124440858444359
 20
-40.5740270819824218
 30
0.0
 11
6443.124440858444359
 21
-45.5740270819824218
 31
0.0
 12
6458.1244408584416306
 22
-43.0740270819824218
 32
0.0
 13
6458.1244408584416306
 23
-43.0740270819824218
 33
0.0
  0
INSERT
  5
8B1
  8
0
  2
*U133
 10
0.0
 20
0.0
 30
0.0
  0
POINT
  5
8B2
  8
DEFPOINTS
 62
     0
 10
5642.3244408584423581
 20
-78.5805389107221828
 30
0.0
  0
POINT
  5
8B3
  8
DEFPOINTS
 62
     0
 10
6458.1244408584416306
 20
-78.580538910722268
 30
0.0
  0
POINT
  5
8B4
  8
DEFPOINTS
 62
     0
 10
6458.1244408584416306
 20
-43.0740270819824218
 30
0.0
  0
ENDBLK
  5
8B5
  8
0
  0
BLOCK
  8
0
  2
*U133
 70
     1
 10
0.0
 20
0.0
 30
0.0
  3
*U133
  1

  0
TEXT
  5
D45
  8
0
 62
     0
 10
6006.4744408584419944
 20
-30.5740270819824111
 30
0.0
 40
15.0
  1
815,8mm
  0
ENDBLK
  5
D47
  8
0
  0
BLOCK
  8
0
  2
*D134
 70
     1
 10
0.0
 20
0.0
 30
0.0
  3
*D134
  1

  0
LINE
  5
8B8
  8
0
 62
     0
 10
5602.9580566763961542
 20
-82.0805389107221828
 30
0.0
 11
5602.9580566763961542
 21
-563.0805389107222254
 31
0.0
  0
SOLID
  5
8B9
  8
0
 62
     0
 10
5600.4580566763943352
 20
-82.0805389107221828
 30
0.0
 11
5605.4580566763943352
 21
-82.0805389107221828
 31
0.0
 12
5602.9580566763961542
 22
-67.0805389107222254
 32
0.0
 13
5602.9580566763961542
 23
-67.0805389107222254
 33
0.0
  0
SOLID
  5
8BA
  8
0
 62
     0
 10
5600.4580566763943352
 20
-563.0805389107222254
 30
0.0
 11
5605.4580566763943352
 21
-563.0805389107222254
 31
0.0
 12
5602.9580566763961542
 22
-578.0805389107221117
 32
0.0
 13
5602.9580566763961542
 23
-578.0805389107221117
 33
0.0
  0
INSERT
  5
8BB
  8
0
  2
*U135
 10
0.0
 20
0.0
 30
0.0
  0
POINT
  5
8BC
  8
DEFPOINTS
 62
     0
 10
5653.8244408584432676
 20
-67.0805389107222254
 30
0.0
  0
POINT
  5
8BD
  8
DEFPOINTS
 62
     0
 10
5653.8244408584432676
 20
-578.0805389107221117
 30
0.0
  0
POINT
  5
8BE
  8
DEFPOINTS
 62
     0
 10
5602.9580566763961542
 20
-578.0805389107221117
 30
0.0
  0
ENDBLK
  5
8BF
  8
0
  0
BLOCK
  8
0
  2
*U135
 70
     1
 10
0.0
 20
0.0
 30
0.0
  3
*U135
  1

  0
TEXT
  5
D49
  8
0
 62
     0
 10
5592.9580566763943352
 20
-352.5805389107213159
 30
0.0
 40
15.0
  1
511mm
 50
90.0
  0
ENDBLK
  5
D4B
  8
0
  0
BLOCK
  8
0
  2
*D136
 70
     1
 10
0.0
 20
0.0
 30
0.0
  3
*D136
  1

  0
LINE
  5
920
  8
0
 62
     0
 10
5570.3970452361008938
 20
-30.7774613486467317
 30
0.0
 11
5662.8970452360990748
 21
-30.7774613486465114
 31
0.0
  0
LINE
  5
921
  8
0
 62
     0
 10
5662.8970452360990748
 20
-30.7774613486465114
 30
0.0
 11
5714.3323008437746466
 21
-44.5243649590386283
 31
0.0
  0
INSERT
  5
922
  8
0
  2
*U137
 10
0.0
 20
0.0
 30
0.0
  0
LINE
  5
923
  8
0
 62
     0
 10
5739.9337016435110854
 20
-51.366753218356962
 30
0.0
 11
5728.8236597870209152
 21
-48.397414917143351
 31
0.0
  0
SOLID
  5
924
  8
0
 62
     0
 10
5714.9778091701246012
 20
-42.1091384684975765
 30
0.0
 11
5713.6867925174246921
 21
-46.9395914495798934
 31
0.0
 12
5728.8236597870209152
 22
-48.397414917143351
 32
0.0
 13
5728.8236597870209152
 23
-48.397414917143351
 33
0.0
  0
POINT
  5
925
  8
DEFPOINTS
 62
     0
 10
5728.8236597870209152
 20
-48.397414917143351
 30
0.0
  0
POINT
  5
926
  8
DEFPOINTS
 62
     0
 10
5739.9337016435110854
 20
-51.366753218356962
 30
0.0
  0
ENDBLK
  5
8FD
  8
0
  0
BLOCK
  8
0
  2
*U137
 70
     1
 10
0.0
 20
0.0
 30
0.0
  3
*U137
  1

  0
TEXT
  5
D51
  8
0
 62
     0
 10
5570.3970452360999843
 20
-18.2774613486462805
 30
0.0
 40
15.0
  1
R11,5mm
  0
ENDBLK
  5
D53
  8
0
  0
BLOCK
  8
0
  2
*D138
 70
     1
 10
0.0
 20
0.0
 30
0.0
  3
*D138
  1

  0
LINE
  5
919
  8
0
 62
     0
 10
5752.4204946845184168
 20
-23.0357240101880087
 30
0.0
 11
6538.2204946845185987
 21
-23.0357240101880087
 31
0.0
  0
SOLID
  5
91A
  8
0
 62
     0
 10
5752.4204946845184168
 20
-20.5357240101880087
 30
0.0
 11
5752.4204946845184168
 21
-25.5357240101880087
 31
0.0
 12
5737.4204946845165978
 22
-23.0357240101880087
 32
0.0
 13
5737.4204946845165978
 23
-23.0357240101880087
 33
0.0
  0
SOLID
  5
91B
  8
0
 62
     0
 10
6538.2204946845185987
 20
-20.5357240101880087
 30
0.0
 11
6538.2204946845185987
 21
-25.5357240101880087
 31
0.0
 12
6553.2204946845213271
 22
-23.0357240101880087
 32
0.0
 13
6553.2204946845213271
 23
-23.0357240101880087
 33
0.0
  0
INSERT
  5
91C
  8
0
  2
*U139
 10
0.0
 20
0.0
 30
0.0
  0
POINT
  5
91D
  8
DEFPOINTS
 62
     0
 10
5737.4204946845165978
 20
-58.542235838927823
 30
0.0
  0
POINT
  5
91E
  8
DEFPOINTS
 62
     0
 10
6553.2204946845213271
 20
-58.542235838927823
 30
0.0
  0
POINT
  5
91F
  8
DEFPOINTS
 62
     0
 10
6553.2204946845213271
 20
-23.0357240101880087
 30
0.0
  0
ENDBLK
  5
90E
  8
0
  0
BLOCK
  8
0
  2
*U139
 70
     1
 10
0.0
 20
0.0
 30
0.0
  3
*U139
  1

  0
TEXT
  5
D4D
  8
0
 62
     0
 10
6101.5704946845189625
 20
-10.5357240101879999
 30
0.0
 40
15.0
  1
815,8mm
  0
ENDBLK
  5
D4F
  8
0
  0
BLOCK
  8
0
  2
*D140
 70
     1
 10
0.0
 20
0.0
 30
0.0
  3
*D140
  1

  0
LINE
  5
927
  8
0
 62
     0
 10
5698.0541105024722128
 20
-62.0422358389278017
 30
0.0
 11
5698.0541105024722128
 21
-543.0422358389278088
 31
0.0
  0
SOLID
  5
928
  8
0
 62
     0
 10
5695.5541105024685749
 20
-62.0422358389278017
 30
0.0
 11
5700.5541105024685749
 21
-62.0422358389278017
 31
0.0
 12
5698.0541105024722128
 22
-47.0422358389277875
 32
0.0
 13
5698.0541105024722128
 23
-47.0422358389277875
 33
0.0
  0
SOLID
  5
929
  8
0
 62
     0
 10
5695.5541105024685749
 20
-543.0422358389278088
 30
0.0
 11
5700.5541105024685749
 21
-543.0422358389278088
 31
0.0
 12
5698.0541105024722128
 22
-558.0422358389275814
 32
0.0
 13
5698.0541105024722128
 23
-558.0422358389275814
 33
0.0
  0
INSERT
  5
92A
  8
0
  2
*U141
 10
0.0
 20
0.0
 30
0.0
  0
POINT
  5
92B
  8
DEFPOINTS
 62
     0
 10
5748.9204946845193263
 20
-47.0422358389278088
 30
0.0
  0
POINT
  5
92C
  8
DEFPOINTS
 62
     0
 10
5748.9204946845193263
 20
-558.0422358389275814
 30
0.0
  0
POINT
  5
92D
  8
DEFPOINTS
 62
     0
 10
5698.0541105024722128
 20
-558.0422358389275814
 30
0.0
  0
ENDBLK
  5
918
  8
0
  0
BLOCK
  8
0
  2
*U141
 70
     1
 10
0.0
 20
0.0
 30
0.0
  3
*U141
  1

  0
TEXT
  5
D55
  8
0
 62
     0
 10
5688.0541105024703938
 20
-332.5422358389268993
 30
0.0
 40
15.0
  1
511mm
 50
90.0
  0
ENDBLK
  5
D57
  8
0
  0
BLOCK
  8
0
  2
*D142
 70
     1
 10
0.0
 20
0.0
 30
0.0
  3
*D142
  1

  0
LINE
  5
93A
  8
0
 62
     0
 10
5750.9204946845184168
 20
27.1612522538107513
 30
0.0
 11
6539.7204946845185987
 21
27.1612522538107513
 31
0.0
  0
SOLID
  5
93B
  8
0
 62
     0
 10
5750.9204946845184168
 20
29.6612522538107513
 30
0.0
 11
5750.9204946845184168
 21
24.6612522538107513
 31
0.0
 12
5735.9204946845165978
 22
27.1612522538107513
 32
0.0
 13
5735.9204946845165978
 23
27.1612522538107513
 33
0.0
  0
SOLID
  5
93C
  8
0
 62
     0
 10
6539.7204946845185987
 20
29.6612522538107513
 30
0.0
 11
6539.7204946845185987
 21
24.6612522538107513
 31
0.0
 12
6554.7204946845204176
 22
27.1612522538107513
 32
0.0
 13
6554.7204946845204176
 23
27.1612522538107513
 33
0.0
  0
INSERT
  5
93D
  8
0
  2
*U143
 10
0.0
 20
0.0
 30
0.0
  0
POINT
  5
93E
  8
DEFPOINTS
 62
     0
 10
5735.9204946845165978
 20
-58.542235838927823
 30
0.0
  0
POINT
  5
93F
  8
DEFPOINTS
 62
     0
 10
6554.7204946845204176
 20
-58.542235838927823
 30
0.0
  0
POINT
  5
940
  8
DEFPOINTS
 62
     0
 10
6554.7204946845204176
 20
27.1612522538107513
 30
0.0
  0
ENDBLK
  5
938
  8
0
  0
BLOCK
  8
0
  2
*U143
 70
     1
 10
0.0
 20
0.0
 30
0.0
  3
*U143
  1

  0
TEXT
  5
D59
  8
0
 62
     0
 10
6101.5704946845189625
 20
39.6612522538107513
 30
0.0
 40
15.0
  1
818,8mm
  0
ENDBLK
  5
D5B
  8
0
  0
BLOCK
  8
0
  2
*D144
 70
     1
 10
0.0
 20
0.0
 30
0.0
  3
*D144
  1

  0
LINE
  5
94E
  8
0
 62
     0
 10
5652.0277222319728025
 20
-60.5422358389277804
 30
0.0
 11
5652.0277222319728025
 21
-544.5422358389278088
 31
0.0
  0
SOLID
  5
94F
  8
0
 62
     0
 10
5649.5277222319709836
 20
-60.5422358389277804
 30
0.0
 11
5654.5277222319709836
 21
-60.5422358389277804
 31
0.0
 12
5652.0277222319728025
 22
-45.5422358389277804
 32
0.0
 13
5652.0277222319728025
 23
-45.5422358389277804
 33
0.0
  0
SOLID
  5
950
  8
0
 62
     0
 10
5649.5277222319709836
 20
-544.5422358389278088
 30
0.0
 11
5654.5277222319709836
 21
-544.5422358389278088
 31
0.0
 12
5652.0277222319728025
 22
-559.5422358389278088
 32
0.0
 13
5652.0277222319728025
 23
-559.5422358389278088
 33
0.0
  0
INSERT
  5
951
  8
0
  2
*U145
 10
0.0
 20
0.0
 30
0.0
  0
POINT
  5
952
  8
DEFPOINTS
 62
     0
 10
5748.9204946845193263
 20
-45.5422358389277804
 30
0.0
  0
POINT
  5
953
  8
DEFPOINTS
 62
     0
 10
5748.9204946845193263
 20
-559.5422358389278088
 30
0.0
  0
POINT
  5
954
  8
DEFPOINTS
 62
     0
 10
5652.0277222319728025
 20
-559.5422358389278088
 30
0.0
  0
ENDBLK
  5
94C
  8
0
  0
BLOCK
  8
0
  2
*U145
 70
     1
 10
0.0
 20
0.0
 30
0.0
  3
*U145
  1

  0
TEXT
  5
D5D
  8
0
 62
     0
 10
5642.0277222319709836
 20
-335.0422358389268993
 30
0.0
 40
15.0
  1
514mm
 50
90.0
  0
ENDBLK
  5
D5F
  8
0
  0
BLOCK
  8
0
  2
*U146
 70
     1
 10
0.0
 20
0.0
 30
0.0
  3
*U146
  1

  0
TEXT
  5
99F
  8
0
 10
59.5466704555828983
 20
177.1191050664930913
 30
0.0
 40
17.0
  1
TOPZERO
  0
TEXT
  5
9A0
  8
0
 10
59.5466704555828983
 20
148.7857717331600043
 30
0.0
 40
17.0
  1
www.topzero.com
  0
ENDBLK
  5
9A2
  8
0
  0
BLOCK
  8
0
  2
*U147
 70
     1
 10
0.0
 20
0.0
 30
0.0
  3
*U147
  1

  0
TEXT
  5
9A4
  8
0
 10
584.9674578842287929
 20
189.7032503385021016
 30
0.0
 40
18.0
  1
21''  SINGLE BOWL
  0
ENDBLK
  5
9A6
  8
0
  0
BLOCK
  8
0
  2
*U148
 70
     1
 10
0.0
 20
0.0
 30
0.0
  3
*U148
  1

  0
TEXT
  5
9A8
  8
0
 10
402.1022356936618962
 20
82.1977857903038682
 30
0.0
 40
15.0
  1
Stainless
  0
TEXT
  5
9A9
  8
0
 10
402.1022356936618962
 20
57.1977857903038895
 30
0.0
 40
15.0
  1
steel
  0
ENDBLK
  5
9AB
  8
0
  0
BLOCK
  8
0
  2
*U149
 70
     1
 10
0.0
 20
0.0
 30
0.0
  3
*U149
  1

  0
TEXT
  5
9AD
  8
0
 10
807.7635078896316827
 20
62.9406748221705215
 30
0.0
 40
21.9959999999999987
  1
TZ Z533
  0
ENDBLK
  5
9AF
  8
0
  0
BLOCK
  8
0
  2
*U150
 70
     1
 10
0.0
 20
0.0
 30
0.0
  3
*U150
  1

  0
TEXT
  5
9B1
  8
0
 10
1278.6481718177460607
 20
66.5024211549239226
 30
0.0
 40
20.0
  1
10/2020
  0
ENDBLK
  5
9B3
  8
0
  0
BLOCK
  8
0
  2
*U151
 70
     1
 10
0.0
 20
0.0
 30
0.0
  3
*U151
  1

  0
TEXT
  5
9B5
  8
0
 10
1433.6891553556549752
 20
1198.5390055832060625
 30
0.0
 40
20.0
  1
mm
  0
TEXT
  5
9B6
  8
0
 10
1407.0224886889889149
 20
1165.2056722498730323
 30
0.0
 40
20.0
  1
[
  0
TEXT
  5
9B7
  8
0
 10
1420.355822022321945
 20
1165.2056722498730323
 30
0.0
 40
20.0
  1
inch
  0
TEXT
  5
9B8
  8
0
 10
1487.0224886889880054
 20
1165.2056722498730323
 30
0.0
 40
20.0
  1
]
  0
ENDBLK
  5
9BA
  8
0
  0
BLOCK
  8
0
  2
*U152
 70
     1
 10
0.0
 20
0.0
 30
0.0
  3
*U152
  1

  0
TEXT
  5
9BC
  8
0
 10
1170.0986232614079654
 20
244.956967191244587
 30
0.0
 40
12.0
  1
This template file is meant to be a guideline
  0
TEXT
  5
9BD
  8
0
 10
1170.0986232614079654
 20
224.9569671912445017
 30
0.0
 40
12.0
  1
and must be compared with the actual product
  0
TEXT
  5
9BE
  8
0
 10
1170.0986232614079654
 20
204.9569671912445017
 30
0.0
 40
12.0
  1
which should always be present to ensure a
  0
TEXT
  5
9BF
  8
0
 10
1170.0986232614079654
 20
184.9569671912445017
 30
0.0
 40
12.0
  1
perfect cut.Testing on a scrap piece before
  0
TEXT
  5
9C0
  8
0
 10
1170.0986232614079654
 20
164.9569671912445017
 30
0.0
 40
12.0
  1
the final cut is always recommended.
  0
TEXT
  5
9C1
  8
0
 10
1170.0986232614079654
 20
144.9569671912445017
 30
0.0
 40
12.0
  1
UKINOX IS NOT RESPONSIBLE FOR ANY IMPROPERLY
  0
TEXT
  5
9C2
  8
0
 10
1170.0986232614079654
 20
124.9569671912445017
 30
0.0
 40
12.0
  1
CUT COUNTERTOP OR AN IMPROPER INSTALLATION.
  0
ENDBLK
  5
9C4
  8
0
  0
BLOCK
  8
0
  2
*U153
 70
     1
 10
0.0
 20
0.0
 30
0.0
  3
*U153
  1

  0
TEXT
  5
9C6
  8
0
 10
758.7399185445259491
 20
916.7104607416914632
 30
0.0
 40
15.0
  1
Topzero 1,5 mm pozitive reveal
  0
ENDBLK
  5
9C8
  8
0
  0
BLOCK
  8
0
  2
*U154
 70
     1
 10
0.0
 20
0.0
 30
0.0
  3
*U154
  1

  0
TEXT
  5
9CE
  8
0
 62
     1
 10
763.6542181451336546
 20
1038.3416519881429849
 30
0.0
 40
15.0
  1
Topzero zero reveal
  0
ENDBLK
  5
9D0
  8
0
  0
BLOCK
  8
0
  2
*U155
 70
     1
 10
0.0
 20
0.0
 30
0.0
  3
*U155
  1

  0
TEXT
  5
9D6
  8
0
 62
     1
 10
122.9990029219207059
 20
1003.6506982656289892
 30
0.0
 40
15.0
  1
[16
 50
90.0
  0
TEXT
  5
9D7
  8
0
 62
     1
 10
113.7490029219207059
 20
1040.4006982656289892
 30
0.0
 40
10.5
  1
1
 50
90.0
  0
LINE
  5
9D8
  8
0
 62
     1
 10
115.4990029219207059
 20
1038.6506982656289892
 30
0.0
 11
115.4990029219207059
 21
1045.6506982656289892
 31
0.0
  0
TEXT
  5
9D9
  8
0
 62
     1
 10
127.7490029219207059
 20
1038.6506982656289892
 30
0.0
 40
10.5
  1
8
 50
90.0
  0
TEXT
  5
9DA
  8
0
 62
     1
 10
123.0012529219206954
 20
1049.1506982656289892
 30
0.0
 40
15.0045000000000002
  1
'']
 50
90.0
  0
ENDBLK
  5
9DC
  8
0
  0
BLOCK
  8
0
  2
*U156
 70
     1
 10
0.0
 20
0.0
 30
0.0
  3
*U156
  1

  0
TEXT
  5
9DE
  8
0
 62
     1
 10
487.5419498706214085
 20
1191.6394035645068925
 30
0.0
 40
15.0
  1
[21
  0
TEXT
  5
9DF
  8
0
 62
     1
 10
524.2919498706213517
 20
1200.8894035645068925
 30
0.0
 40
10.5
  1
1
  0
LINE
  5
9E0
  8
0
 62
     1
 10
522.5419498706213517
 20
1199.139403564505983
 30
0.0
 11
529.5419498706213517
 21
1199.139403564505983
 31
0.0
  0
TEXT
  5
9E1
  8
0
 62
     1
 10
522.5419498706213517
 20
1186.8894035645068925
 30
0.0
 40
10.5
  1
8
  0
TEXT
  5
9E2
  8
0
 62
     1
 10
533.0419498706214654
 20
1191.6371535645059794
 30
0.0
 40
15.0045000000000002
  1
'']
  0
ENDBLK
  5
9E4
  8
0
  0
BLOCK
  8
0
  2
*U157
 70
     1
 10
0.0
 20
0.0
 30
0.0
  3
*U157
  1

  0
TEXT
  5
A06
  8
0
 10
59.5466621862915417
 20
177.1191062596321899
 30
0.0
 40
17.0
  1
TOPZERO
  0
TEXT
  5
A07
  8
0
 10
59.5466621862915417
 20
148.7857729262987903
 30
0.0
 40
17.0
  1
www.topzero.com
  0
ENDBLK
  5
A09
  8
0
  0
BLOCK
  8
0
  2
*U158
 70
     1
 10
0.0
 20
0.0
 30
0.0
  3
*U158
  1

  0
TEXT
  5
A0B
  8
0
 10
584.9674496149373226
 20
189.7032515316408876
 30
0.0
 40
18.0
  1
21''  SINGLE BOWL
  0
ENDBLK
  5
A0D
  8
0
  0
BLOCK
  8
0
  2
*U159
 70
     1
 10
0.0
 20
0.0
 30
0.0
  3
*U159
  1

  0
TEXT
  5
A0F
  8
0
 10
402.1022274243703123
 20
82.1977869834427111
 30
0.0
 40
15.0
  1
Stainless
  0
TEXT
  5
A10
  8
0
 10
402.1022274243703123
 20
57.1977869834427111
 30
0.0
 40
15.0
  1
steel
  0
ENDBLK
  5
A12
  8
0
  0
BLOCK
  8
0
  2
*U160
 70
     1
 10
0.0
 20
0.0
 30
0.0
  3
*U160
  1

  0
TEXT
  5
A14
  8
0
 10
807.7634996203405535
 20
62.9406760153093217
 30
0.0
 40
21.9959999999999987
  1
TZ Z533
  0
ENDBLK
  5
A16
  8
0
  0
BLOCK
  8
0
  2
*U161
 70
     1
 10
0.0
 20
0.0
 30
0.0
  3
*U161
  1

  0
TEXT
  5
A18
  8
0
 10
1278.6481635484549315
 20
66.5024223480627512
 30
0.0
 40
20.0
  1
10/2020
  0
ENDBLK
  5
A1A
  8
0
  0
BLOCK
  8
0
  2
*U162
 70
     1
 10
0.0
 20
0.0
 30
0.0
  3
*U162
  1

  0
TEXT
  5
A1C
  8
0
 10
1433.6891470863640734
 20
1198.5390067763451043
 30
0.0
 40
20.0
  1
mm
  0
TEXT
  5
A1D
  8
0
 10
1407.0224804196971036
 20
1165.2056734430120741
 30
0.0
 40
20.0
  1
[
  0
TEXT
  5
A1E
  8
0
 10
1420.3558137530310432
 20
1165.2056734430120741
 30
0.0
 40
20.0
  1
inch
  0
TEXT
  5
A1F
  8
0
 10
1487.0224804196971036
 20
1165.2056734430120741
 30
0.0
 40
20.0
  1
]
  0
ENDBLK
  5
A21
  8
0
  0
BLOCK
  8
0
  2
*U163
 70
     1
 10
0.0
 20
0.0
 30
0.0
  3
*U163
  1

  0
TEXT
  5
A23
  8
0
 10
1170.0986149921159267
 20
244.9569683843832877
 30
0.0
 40
12.0
  1
This template file is meant to be a guideline
  0
TEXT
  5
A24
  8
0
 10
1170.0986149921159267
 20
224.9569683843834014
 30
0.0
 40
12.0
  1
and must be compared with the actual product
  0
TEXT
  5
A25
  8
0
 10
1170.0986149921159267
 20
204.9569683843832877
 30
0.0
 40
12.0
  1
which should always be present to ensure a
  0
TEXT
  5
A26
  8
0
 10
1170.0986149921159267
 20
184.9569683843832877
 30
0.0
 40
12.0
  1
perfect cut.Testing on a scrap piece before
  0
TEXT
  5
A27
  8
0
 10
1170.0986149921159267
 20
164.9569683843832877
 30
0.0
 40
12.0
  1
the final cut is always recommended.
  0
TEXT
  5
A28
  8
0
 10
1170.0986149921159267
 20
144.9569683843832877
 30
0.0
 40
12.0
  1
UKINOX IS NOT RESPONSIBLE FOR ANY IMPROPERLY
  0
TEXT
  5
A29
  8
0
 10
1170.0986149921159267
 20
124.9569683843833019
 30
0.0
 40
12.0
  1
CUT COUNTERTOP OR AN IMPROPER INSTALLATION.
  0
ENDBLK
  5
A2B
  8
0
  0
BLOCK
  8
0
  2
*U164
 70
     1
 10
0.0
 20
0.0
 30
0.0
  3
*U164
  1

  0
TEXT
  5
A2D
  8
0
 10
758.7399102752347062
 20
916.7104619348306187
 30
0.0
 40
15.0
  1
Topzero 1,5 mm pozitive reveal
  0
ENDBLK
  5
A2F
  8
0
  0
BLOCK
  8
0
  2
*U165
 70
     1
 10
0.0
 20
0.0
 30
0.0
  3
*U165
  1

  0
TEXT
  5
A35
  8
0
 62
     1
 10
763.6542098758422981
 20
1038.3416531812820267
 30
0.0
 40
15.0
  1
Topzero zero reveal
  0
ENDBLK
  5
A37
  8
0
  0
BLOCK
  8
0
  2
*U166
 70
     1
 10
0.0
 20
0.0
 30
0.0
  3
*U166
  1

  0
TEXT
  5
A3D
  8
0
 62
     1
 10
122.9989946526293068
 20
1003.650699458768031
 30
0.0
 40
15.0
  1
[16
 50
90.0
  0
TEXT
  5
A3E
  8
0
 62
     1
 10
113.7489946526293068
 20
1040.400699458768031
 30
0.0
 40
10.5
  1
1
 50
90.0
  0
LINE
  5
A3F
  8
0
 62
     1
 10
115.4989946526293068
 20
1038.650699458768031
 30
0.0
 11
115.4989946526293068
 21
1045.650699458768031
 31
0.0
  0
TEXT
  5
A40
  8
0
 62
     1
 10
127.7489946526293068
 20
1038.650699458768031
 30
0.0
 40
10.5
  1
8
 50
90.0
  0
TEXT
  5
A41
  8
0
 62
     1
 10
123.0012446526292962
 20
1049.150699458768031
 30
0.0
 40
15.0045000000000002
  1
'']
 50
90.0
  0
ENDBLK
  5
A43
  8
0
  0
BLOCK
  8
0
  2
*U167
 70
     1
 10
0.0
 20
0.0
 30
0.0
  3
*U167
  1

  0
TEXT
  5
A45
  8
0
 62
     1
 10
487.5419416013295972
 20
1191.6394047576459343
 30
0.0
 40
15.0
  1
[21
  0
TEXT
  5
A46
  8
0
 62
     1
 10
524.2919416013297678
 20
1200.8894047576459343
 30
0.0
 40
10.5
  1
1
  0
LINE
  5
A47
  8
0
 62
     1
 10
522.5419416013297678
 20
1199.1394047576459343
 30
0.0
 11
529.5419416013299951
 21
1199.1394047576459343
 31
0.0
  0
TEXT
  5
A48
  8
0
 62
     1
 10
522.5419416013297678
 20
1186.8894047576459343
 30
0.0
 40
10.5
  1
8
  0
TEXT
  5
A49
  8
0
 62
     1
 10
533.0419416013299951
 20
1191.6371547576459307
 30
0.0
 40
15.0045000000000002
  1
'']
  0
ENDBLK
  5
A4B
  8
0
  0
BLOCK
  8
0
  2
*U168
 70
     1
 10
0.0
 20
0.0
 30
0.0
  3
*U168
  1

  0
TEXT
  5
A4D
  8
0
 10
3585.0515191797271655
 20
418.1043395781483127
 30
0.0
 40
17.0
  1
TOPZERO
  0
TEXT
  5
A4E
  8
0
 10
3585.0515191797271655
 20
389.771006244815112
 30
0.0
 40
17.0
  1
www.topzero.com
  0
ENDBLK
  5
A50
  8
0
  0
BLOCK
  8
0
  2
*U169
 70
     1
 10
0.0
 20
0.0
 30
0.0
  3
*U169
  1

  0
TEXT
  5
A52
  8
0
 10
4110.4723066083734011
 20
430.688484850157181
 30
0.0
 40
18.0
  1
32''  LARGE SINGLE BOWL
  0
ENDBLK
  5
A54
  8
0
  0
BLOCK
  8
0
  2
*U170
 70
     1
 10
0.0
 20
0.0
 30
0.0
  3
*U170
  1

  0
TEXT
  5
A56
  8
0
 10
3927.6070844178070729
 20
323.1830203019590044
 30
0.0
 40
15.0
  1
Stainless
  0
TEXT
  5
A57
  8
0
 10
3927.6070844178070729
 20
298.1830203019590044
 30
0.0
 40
15.0
  1
steel
  0
ENDBLK
  5
A59
  8
0
  0
BLOCK
  8
0
  2
*U171
 70
     1
 10
0.0
 20
0.0
 30
0.0
  3
*U171
  1

  0
TEXT
  5
A5B
  8
0
 10
4333.268356613776632
 20
303.9259093338257003
 30
0.0
 40
21.9959999999999987
  1
TZ M812
  0
ENDBLK
  5
A5D
  8
0
  0
BLOCK
  8
0
  2
*U172
 70
     1
 10
0.0
 20
0.0
 30
0.0
  3
*U172
  1

  0
TEXT
  5
A5F
  8
0
 10
4804.1530205418903279
 20
307.4876556665789167
 30
0.0
 40
20.0
  1
10/2020
  0
ENDBLK
  5
A61
  8
0
  0
BLOCK
  8
0
  2
*U173
 70
     1
 10
0.0
 20
0.0
 30
0.0
  3
*U173
  1

  0
TEXT
  5
A63
  8
0
 10
4959.194004079799015
 20
1439.5242400948609429
 30
0.0
 40
20.0
  1
mm
  0
TEXT
  5
A64
  8
0
 10
4932.5273374131329547
 20
1406.1909067615279127
 30
0.0
 40
20.0
  1
[
  0
TEXT
  5
A65
  8
0
 10
4945.8606707464659848
 20
1406.1909067615279127
 30
0.0
 40
20.0
  1
inch
  0
TEXT
  5
A66
  8
0
 10
5012.5273374131329547
 20
1406.1909067615279127
 30
0.0
 40
20.0
  1
]
  0
ENDBLK
  5
A68
  8
0
  0
BLOCK
  8
0
  2
*U174
 70
     1
 10
0.0
 20
0.0
 30
0.0
  3
*U174
  1

  0
TEXT
  5
A6A
  8
0
 10
4695.6034719855515505
 20
485.9422017028995811
 30
0.0
 40
12.0
  1
This template file is meant to be a guideline
  0
TEXT
  5
A6B
  8
0
 10
4695.6034719855515505
 20
465.9422017028995811
 30
0.0
 40
12.0
  1
and must be compared with the actual product
  0
TEXT
  5
A6C
  8
0
 10
4695.6034719855515505
 20
445.9422017028995811
 30
0.0
 40
12.0
  1
which should always be present to ensure a
  0
TEXT
  5
A6D
  8
0
 10
4695.6034719855515505
 20
425.9422017028995811
 30
0.0
 40
12.0
  1
perfect cut.Testing on a scrap piece before
  0
TEXT
  5
A6E
  8
0
 10
4695.6034719855515505
 20
405.9422017028995811
 30
0.0
 40
12.0
  1
the final cut is always recommended.
  0
TEXT
  5
A6F
  8
0
 10
4695.6034719855515505
 20
385.9422017028995811
 30
0.0
 40
12.0
  1
UKINOX IS NOT RESPONSIBLE FOR ANY IMPROPERLY
  0
TEXT
  5
A70
  8
0
 10
4695.6034719855515505
 20
365.9422017028996947
 30
0.0
 40
12.0
  1
CUT COUNTERTOP OR AN IMPROPER INSTALLATION.
  0
ENDBLK
  5
A72
  8
0
  0
BLOCK
  8
0
  2
*U175
 70
     1
 10
0.0
 20
0.0
 30
0.0
  3
*U175
  1

  0
TEXT
  5
A84
  8
0
 10
69.7619189407178055
 20
5.0000000040379291
 30
0.0
 40
15.0
  1
Topzero 1,5 mm pozitive reveal
  0
ENDBLK
  5
A86
  8
0
  0
BLOCK
  8
0
  2
*U176
 70
     1
 10
0.0
 20
0.0
 30
0.0
  3
*U176
  1

  0
TEXT
  5
A8C
  8
0
 62
     1
 10
74.6762185413244879
 20
126.6311912504898061
 30
0.0
 40
15.0
  1
Topzero zero reveal
  0
ENDBLK
  5
A8E
  8
0
  0
BLOCK
  8
0
  2
*U177
 70
     1
 10
0.0
 20
0.0
 30
0.0
  3
*U177
  1

  0
TEXT
  5
A94
  8
0
 10
4597.7660549816710045
 20
1080.1047747486700246
 30
0.0
 40
15.0
  1
Topzero 1,5 mm pozitive reveal
  0
ENDBLK
  5
A96
  8
0
  0
BLOCK
  8
0
  2
*U178
 70
     1
 10
0.0
 20
0.0
 30
0.0
  3
*U178
  1

  0
TEXT
  5
A9C
  8
0
 62
     1
 10
4602.6803545822785964
 20
1218.0342264896119104
 30
0.0
 40
15.0
  1
Topzero zero reveal
  0
ENDBLK
  5
A9E
  8
0
  0
BLOCK
  8
0
  2
*U179
 70
     1
 10
0.0
 20
0.0
 30
0.0
  3
*U179
  1

  0
TEXT
  5
AAF
  8
0
 62
     1
 10
0.0000028493404898
 20
4.7499996869407184
 30
0.0
 40
15.0
  1
[21
  0
TEXT
  5
AB0
  8
0
 62
     1
 10
36.7500028493404898
 20
13.9999996869407202
 30
0.0
 40
10.5
  1
1
  0
LINE
  5
AB1
  8
0
 62
     1
 10
35.0000028493404898
 20
12.2499996869407202
 30
0.0
 11
42.0000028493404827
 21
12.2499996869407202
 31
0.0
  0
TEXT
  5
AB2
  8
0
 62
     1
 10
35.0000028493404898
 20
-0.0000003130592816
 30
0.0
 40
10.5
  1
8
  0
TEXT
  5
AB3
  8
0
 62
     1
 10
45.5000028493404898
 20
4.7477496869407183
 30
0.0
 40
15.0045000000000002
  1
'']
  0
ENDBLK
  5
AB5
  8
0
  0
BLOCK
  8
0
  2
*U180
 70
     1
 10
0.0
 20
0.0
 30
0.0
  3
*U180
  1

  0
TEXT
  5
AB7
  8
0
 62
     1
 10
4182.9407013051586546
 20
1449.0513237137440683
 30
0.0
 40
15.0
  1
[32
  0
TEXT
  5
AB8
  8
0
 62
     1
 10
4224.6907013051586546
 20
1458.3013237137440683
 30
0.0
 40
10.5
  1
1
  0
LINE
  5
AB9
  8
0
 62
     1
 10
4222.9407013051595641
 20
1456.5513237137440683
 30
0.0
 11
4229.9407013051586546
 21
1456.5513237137440683
 31
0.0
  0
TEXT
  5
ABA
  8
0
 62
     1
 10
4222.9407013051595641
 20
1444.3013237137440683
 30
0.0
 40
10.5
  1
8
  0
TEXT
  5
ABB
  8
0
 62
     1
 10
4233.4407013051586546
 20
1449.0490737137440647
 30
0.0
 40
15.0045000000000002
  1
'']
  0
ENDBLK
  5
ABD
  8
0
  0
BLOCK
  8
0
  2
*U181
 70
     1
 10
0.0
 20
0.0
 30
0.0
  3
*U181
  1

  0
TEXT
  5
ABF
  8
0
 62
     1
 10
19.7499969621421805
 20
0.0000003821312463
 30
0.0
 40
15.0
  1
[16
 50
90.0
  0
TEXT
  5
AC0
  8
0
 62
     1
 10
10.4999969621421805
 20
36.7500003821312689
 30
0.0
 40
10.5
  1
1
 50
90.0
  0
LINE
  5
AC1
  8
0
 62
     1
 10
12.2499969621421805
 20
35.0000003821312475
 30
0.0
 11
12.2499969621421805
 21
42.0000003821312475
 31
0.0
  0
TEXT
  5
AC2
  8
0
 62
     1
 10
24.4999969621421805
 20
35.0000003821312475
 30
0.0
 40
10.5
  1
8
 50
90.0
  0
TEXT
  5
AC3
  8
0
 62
     1
 10
19.7522469621421806
 20
45.5000003821312404
 30
0.0
 40
15.0045000000000002
  1
'']
 50
90.0
  0
ENDBLK
  5
AC5
  8
0
  0
BLOCK
  8
0
  2
*U182
 70
     1
 10
0.0
 20
0.0
 30
0.0
  3
*U182
  1

  0
TEXT
  5
AC7
  8
0
 62
     1
 10
3670.8736373597280362
 20
1196.4846702688009827
 30
0.0
 40
15.0
  1
[20
 50
90.0
  0
TEXT
  5
AC8
  8
0
 62
     1
 10
3661.6236373597280362
 20
1235.7346702688009827
 30
0.0
 40
10.5
  1
1
 50
90.0
  0
LINE
  5
AC9
  8
0
 62
     1
 10
3663.3736373597280362
 20
1233.9846702688009827
 30
0.0
 11
3663.3736373597280362
 21
1240.9846702688000732
 31
0.0
  0
TEXT
  5
ACA
  8
0
 62
     1
 10
3675.6236373597271267
 20
1233.9846702688009827
 30
0.0
 40
10.5
  1
8
 50
90.0
  0
TEXT
  5
ACB
  8
0
 62
     1
 10
3670.8758873597280399
 20
1244.4846702688009827
 30
0.0
 40
15.0045000000000002
  1
'']
 50
90.0
  0
ENDBLK
  5
ACD
  8
0
  0
BLOCK
  8
0
  2
*U183
 70
     1
 10
0.0
 20
0.0
 30
0.0
  3
*U183
  1

  0
TEXT
  5
AEF
  8
0
 10
59.5466621862897227
 20
177.119106109364111
 30
0.0
 40
17.0
  1
TOPZERO
  0
TEXT
  5
AF0
  8
0
 10
59.5466621862897227
 20
148.7857727760307966
 30
0.0
 40
17.0
  1
www.topzero.com
  0
ENDBLK
  5
AF2
  8
0
  0
BLOCK
  8
0
  2
*U184
 70
     1
 10
0.0
 20
0.0
 30
0.0
  3
*U184
  1

  0
TEXT
  5
AF4
  8
0
 10
584.9674496149351626
 20
189.7032513813728087
 30
0.0
 40
18.0
  1
32''  LARGE SINGLE BOWL
  0
ENDBLK
  5
AF6
  8
0
  0
BLOCK
  8
0
  2
*U185
 70
     1
 10
0.0
 20
0.0
 30
0.0
  3
*U185
  1

  0
TEXT
  5
AF8
  8
0
 10
402.1022274243687207
 20
82.197786833174618
 30
0.0
 40
15.0
  1
Stainless
  0
TEXT
  5
AF9
  8
0
 10
402.1022274243687207
 20
57.1977868331746322
 30
0.0
 40
15.0
  1
steel
  0
ENDBLK
  5
AFB
  8
0
  0
BLOCK
  8
0
  2
*U186
 70
     1
 10
0.0
 20
0.0
 30
0.0
  3
*U186
  1

  0
TEXT
  5
AFD
  8
0
 10
807.7634996203387345
 20
62.940675865041257
 30
0.0
 40
21.9959999999999987
  1
TZ M812
  0
ENDBLK
  5
AFF
  8
0
  0
BLOCK
  8
0
  2
*U187
 70
     1
 10
0.0
 20
0.0
 30
0.0
  3
*U187
  1

  0
TEXT
  5
B01
  8
0
 10
1278.6481635484531125
 20
66.5024221977946581
 30
0.0
 40
20.0
  1
10/2020
  0
ENDBLK
  5
B03
  8
0
  0
BLOCK
  8
0
  2
*U188
 70
     1
 10
0.0
 20
0.0
 30
0.0
  3
*U188
  1

  0
TEXT
  5
B05
  8
0
 10
1433.689147086362027
 20
1198.5390066260770254
 30
0.0
 40
20.0
  1
mm
  0
TEXT
  5
B06
  8
0
 10
1407.0224804196959667
 20
1165.2056732927439953
 30
0.0
 40
20.0
  1
[
  0
TEXT
  5
B07
  8
0
 10
1420.3558137530289969
 20
1165.2056732927439953
 30
0.0
 40
20.0
  1
inch
  0
TEXT
  5
B08
  8
0
 10
1487.0224804196959667
 20
1165.2056732927439953
 30
0.0
 40
20.0
  1
]
  0
ENDBLK
  5
B0A
  8
0
  0
BLOCK
  8
0
  2
*U189
 70
     1
 10
0.0
 20
0.0
 30
0.0
  3
*U189
  1

  0
TEXT
  5
B0C
  8
0
 10
1170.0986149921141077
 20
244.9569682341152941
 30
0.0
 40
12.0
  1
This template file is meant to be a guideline
  0
TEXT
  5
B0D
  8
0
 10
1170.0986149921141077
 20
224.9569682341152941
 30
0.0
 40
12.0
  1
and must be compared with the actual product
  0
TEXT
  5
B0E
  8
0
 10
1170.0986149921141077
 20
204.9569682341152941
 30
0.0
 40
12.0
  1
which should always be present to ensure a
  0
TEXT
  5
B0F
  8
0
 10
1170.0986149921141077
 20
184.9569682341152088
 30
0.0
 40
12.0
  1
perfect cut.Testing on a scrap piece before
  0
TEXT
  5
B10
  8
0
 10
1170.0986149921141077
 20
164.9569682341152088
 30
0.0
 40
12.0
  1
the final cut is always recommended.
  0
TEXT
  5
B11
  8
0
 10
1170.0986149921141077
 20
144.9569682341152088
 30
0.0
 40
12.0
  1
UKINOX IS NOT RESPONSIBLE FOR ANY IMPROPERLY
  0
TEXT
  5
B12
  8
0
 10
1170.0986149921141077
 20
124.9569682341151946
 30
0.0
 40
12.0
  1
CUT COUNTERTOP OR AN IMPROPER INSTALLATION.
  0
ENDBLK
  5
B14
  8
0
  0
BLOCK
  8
0
  2
*U190
 70
     1
 10
0.0
 20
0.0
 30
0.0
  3
*U190
  1

  0
TEXT
  5
B16
  8
0
 10
1072.2611979882360629
 20
839.1195412798856523
 30
0.0
 40
15.0
  1
Topzero 1,5 mm pozitive reveal
  0
ENDBLK
  5
B18
  8
0
  0
BLOCK
  8
0
  2
*U191
 70
     1
 10
0.0
 20
0.0
 30
0.0
  3
*U191
  1

  0
TEXT
  5
B1E
  8
0
 62
     1
 10
1077.1754975888420631
 20
977.0489930208276519
 30
0.0
 40
15.0
  1
Topzero zero reveal
  0
ENDBLK
  5
B20
  8
0
  0
BLOCK
  8
0
  2
*U192
 70
     1
 10
0.0
 20
0.0
 30
0.0
  3
*U192
  1

  0
TEXT
  5
B26
  8
0
 62
     1
 10
657.4358443117223487
 20
1208.0660902449599234
 30
0.0
 40
15.0
  1
[32
  0
TEXT
  5
B27
  8
0
 62
     1
 10
699.1858443117225761
 20
1217.3160902449599234
 30
0.0
 40
10.5
  1
1
  0
LINE
  5
B28
  8
0
 62
     1
 10
697.4358443117225761
 20
1215.5660902449599234
 30
0.0
 11
704.4358443117224624
 21
1215.5660902449599234
 31
0.0
  0
TEXT
  5
B29
  8
0
 62
     1
 10
697.4358443117225761
 20
1203.3160902449599234
 30
0.0
 40
10.5
  1
8
  0
TEXT
  5
B2A
  8
0
 62
     1
 10
707.9358443117224624
 20
1208.0638402449599198
 30
0.0
 40
15.0045000000000002
  1
'']
  0
ENDBLK
  5
B2C
  8
0
  0
BLOCK
  8
0
  2
*U193
 70
     1
 10
0.0
 20
0.0
 30
0.0
  3
*U193
  1

  0
TEXT
  5
B2E
  8
0
 62
     1
 10
145.3687803662905935
 20
955.4994368000163831
 30
0.0
 40
15.0
  1
[20
 50
90.0
  0
TEXT
  5
B2F
  8
0
 62
     1
 10
136.1187803662905935
 20
994.7494368000163831
 30
0.0
 40
10.5
  1
1
 50
90.0
  0
LINE
  5
B30
  8
0
 62
     1
 10
137.8687803662905935
 20
992.9994368000163831
 30
0.0
 11
137.8687803662905935
 21
999.9994368000163831
 31
0.0
  0
TEXT
  5
B31
  8
0
 62
     1
 10
150.1187803662905935
 20
992.9994368000163831
 30
0.0
 40
10.5
  1
8
 50
90.0
  0
TEXT
  5
B32
  8
0
 62
     1
 10
145.3710303662905972
 20
1003.4994368000160421
 30
0.0
 40
15.0045000000000002
  1
'']
 50
90.0
  0
ENDBLK
  5
B34
  8
0
  0
BLOCK
  8
0
  2
*U194
 70
     1
 10
0.0
 20
0.0
 30
0.0
  3
*U194
  1

  0
TEXT
  5
B36
  8
0
 10
5517.6928062531478645
 20
418.1043392776102792
 30
0.0
 40
17.0
  1
TOPZERO
  0
TEXT
  5
B37
  8
0
 10
5517.6928062531478645
 20
389.7710059442771922
 30
0.0
 40
17.0
  1
www.topzero.com
  0
ENDBLK
  5
B39
  8
0
  0
BLOCK
  8
0
  2
*U195
 70
     1
 10
0.0
 20
0.0
 30
0.0
  3
*U195
  1

  0
TEXT
  5
B3B
  8
0
 10
6043.1135936817945549
 20
430.6884845496192042
 30
0.0
 40
18.0
  1
26''  LARGE SINGLE BOWL
  0
ENDBLK
  5
B3D
  8
0
  0
BLOCK
  8
0
  2
*U196
 70
     1
 10
0.0
 20
0.0
 30
0.0
  3
*U196
  1

  0
TEXT
  5
B3F
  8
0
 10
5860.2483714912277719
 20
323.1830200014210277
 30
0.0
 40
15.0
  1
Stainless
  0
TEXT
  5
B40
  8
0
 10
5860.2483714912277719
 20
298.1830200014210277
 30
0.0
 40
15.0
  1
steel
  0
ENDBLK
  5
B42
  8
0
  0
BLOCK
  8
0
  2
*U197
 70
     1
 10
0.0
 20
0.0
 30
0.0
  3
*U197
  1

  0
TEXT
  5
B44
  8
0
 10
6265.9096436871986953
 20
303.9259090332877236
 30
0.0
 40
21.9959999999999987
  1
TZ M662
  0
ENDBLK
  5
B46
  8
0
  0
BLOCK
  8
0
  2
*U198
 70
     1
 10
0.0
 20
0.0
 30
0.0
  3
*U198
  1

  0
TEXT
  5
B48
  8
0
 10
6736.7943076153123911
 20
307.4876553660411105
 30
0.0
 40
20.0
  1
10/2020
  0
ENDBLK
  5
B4A
  8
0
  0
BLOCK
  8
0
  2
*U199
 70
     1
 10
0.0
 20
0.0
 30
0.0
  3
*U199
  1

  0
TEXT
  5
B4C
  8
0
 10
6891.8352911532210783
 20
1439.5242397943229662
 30
0.0
 40
20.0
  1
mm
  0
TEXT
  5
B4D
  8
0
 10
6865.1686244865568369
 20
1406.190906460989936
 30
0.0
 40
20.0
  1
[
  0
TEXT
  5
B4E
  8
0
 10
6878.5019578198889576
 20
1406.190906460989936
 30
0.0
 40
20.0
  1
inch
  0
TEXT
  5
B4F
  8
0
 10
6945.1686244865550179
 20
1406.190906460989936
 30
0.0
 40
20.0
  1
]
  0
ENDBLK
  5
B51
  8
0
  0
BLOCK
  8
0
  2
*U200
 70
     1
 10
0.0
 20
0.0
 30
0.0
  3
*U200
  1

  0
TEXT
  5
B53
  8
0
 10
6628.2447590589736137
 20
485.9422014023616043
 30
0.0
 40
12.0
  1
This template file is meant to be a guideline
  0
TEXT
  5
B54
  8
0
 10
6628.2447590589736137
 20
465.942201402361718
 30
0.0
 40
12.0
  1
and must be compared with the actual product
  0
TEXT
  5
B55
  8
0
 10
6628.2447590589736137
 20
445.9422014023616043
 30
0.0
 40
12.0
  1
which should always be present to ensure a
  0
TEXT
  5
B56
  8
0
 10
6628.2447590589736137
 20
425.9422014023614906
 30
0.0
 40
12.0
  1
perfect cut.Testing on a scrap piece before
  0
TEXT
  5
B57
  8
0
 10
6628.2447590589736137
 20
405.9422014023614906
 30
0.0
 40
12.0
  1
the final cut is always recommended.
  0
TEXT
  5
B58
  8
0
 10
6628.2447590589736137
 20
385.942201402361718
 30
0.0
 40
12.0
  1
UKINOX IS NOT RESPONSIBLE FOR ANY IMPROPERLY
  0
TEXT
  5
B59
  8
0
 10
6628.2447590589736137
 20
365.942201402361718
 30
0.0
 40
12.0
  1
CUT COUNTERTOP OR AN IMPROPER INSTALLATION.
  0
ENDBLK
  5
B5B
  8
0
  0
BLOCK
  8
0
  2
*U201
 70
     1
 10
0.0
 20
0.0
 30
0.0
  3
*U201
  1

  0
TEXT
  5
B5D
  8
0
 10
6482.9989746286510126
 20
1134.8769759353720019
 30
0.0
 40
15.0
  1
Topzero 1,5 mm pozitive reveal
  0
ENDBLK
  5
B5F
  8
0
  0
BLOCK
  8
0
  2
*U202
 70
     1
 10
0.0
 20
0.0
 30
0.0
  3
*U202
  1

  0
TEXT
  5
B65
  8
0
 62
     1
 10
6487.9132742292613329
 20
1251.296655996499112
 30
0.0
 40
15.0
  1
Topzero zero reveal
  0
ENDBLK
  5
B67
  8
0
  0
BLOCK
  8
0
  2
*U203
 70
     1
 10
0.0
 20
0.0
 30
0.0
  3
*U203
  1

  0
TEXT
  5
B95
  8
0
 62
     1
 10
19.7499969621385212
 20
0.0000003821312463
 30
0.0
 40
15.0
  1
[20
 50
90.0
  0
TEXT
  5
B96
  8
0
 62
     1
 10
10.4999969621385407
 20
39.2500003821312689
 30
0.0
 40
10.5
  1
1
 50
90.0
  0
LINE
  5
B97
  8
0
 62
     1
 10
12.2499969621385407
 20
37.5000003821312475
 30
0.0
 11
12.2499969621385407
 21
44.5000003821312475
 31
0.0
  0
TEXT
  5
B98
  8
0
 62
     1
 10
24.4999969621385496
 20
37.5000003821312475
 30
0.0
 40
10.5
  1
8
 50
90.0
  0
TEXT
  5
B99
  8
0
 62
     1
 10
19.7522469621385106
 20
48.0000003821312404
 30
0.0
 40
15.0045000000000002
  1
'']
 50
90.0
  0
ENDBLK
  5
B9B
  8
0
  0
BLOCK
  8
0
  2
*U204
 70
     1
 10
0.0
 20
0.0
 30
0.0
  3
*U204
  1

  0
TEXT
  5
B9D
  8
0
 62
     1
 10
5703.6508001635311302
 20
1180.9226091522450588
 30
0.0
 40
15.0
  1
[20
 50
90.0
  0
TEXT
  5
B9E
  8
0
 62
     1
 10
5694.4008001635311302
 20
1220.1726091522450588
 30
0.0
 40
10.5
  1
1
 50
90.0
  0
LINE
  5
B9F
  8
0
 62
     1
 10
5696.1508001635329492
 20
1218.4226091522450588
 30
0.0
 11
5696.1508001635329492
 21
1225.4226091522450588
 31
0.0
  0
TEXT
  5
BA0
  8
0
 62
     1
 10
5708.4008001635311302
 20
1218.4226091522450588
 30
0.0
 40
10.5
  1
8
 50
90.0
  0
TEXT
  5
BA1
  8
0
 62
     1
 10
5703.6530501635315886
 20
1228.9226091522450588
 30
0.0
 40
15.0045000000000002
  1
'']
 50
90.0
  0
ENDBLK
  5
BA3
  8
0
  0
BLOCK
  8
0
  2
*U205
 70
     1
 10
0.0
 20
0.0
 30
0.0
  3
*U205
  1

  0
TEXT
  5
BA5
  8
0
 62
     1
 10
0.0000028493368518
 20
4.749999686939808
 30
0.0
 40
15.0
  1
[32
  0
TEXT
  5
BA6
  8
0
 62
     1
 10
41.7500028493368518
 20
13.9999996869398107
 30
0.0
 40
10.5
  1
1
  0
LINE
  5
BA7
  8
0
 62
     1
 10
40.0000028493368518
 20
12.2499996869398107
 30
0.0
 11
47.0000028493368518
 21
12.2499996869398107
 31
0.0
  0
TEXT
  5
BA8
  8
0
 62
     1
 10
40.0000028493368518
 20
-0.0000003130601911
 30
0.0
 40
10.5
  1
8
  0
TEXT
  5
BA9
  8
0
 62
     1
 10
50.5000028493368518
 20
4.747749686939807
 30
0.0
 40
15.0045000000000002
  1
'']
  0
ENDBLK
  5
BAB
  8
0
  0
BLOCK
  8
0
  2
*U206
 70
     1
 10
0.0
 20
0.0
 30
0.0
  3
*U206
  1

  0
TEXT
  5
BAD
  8
0
 62
     1
 10
6148.5375357659277142
 20
1428.5380534989940315
 30
0.0
 40
15.0
  1
[26
  0
TEXT
  5
BAE
  8
0
 62
     1
 10
6190.2875357659277142
 20
1437.7880534989940315
 30
0.0
 40
10.5
  1
1
  0
LINE
  5
BAF
  8
0
 62
     1
 10
6188.5375357659268047
 20
1436.0380534989940315
 30
0.0
 11
6195.5375357659277142
 21
1436.0380534989940315
 31
0.0
  0
TEXT
  5
BB0
  8
0
 62
     1
 10
6188.5375357659268047
 20
1423.7880534989940315
 30
0.0
 40
10.5
  1
8
  0
TEXT
  5
BB1
  8
0
 62
     1
 10
6199.0375357659277142
 20
1428.5358034989940279
 30
0.0
 40
15.0045000000000002
  1
'']
  0
ENDBLK
  5
BB3
  8
0
  0
BLOCK
  8
0
  2
*U207
 70
     1
 10
0.0
 20
0.0
 30
0.0
  3
*U207
  1

  0
TEXT
  5
BC9
  8
0
 10
59.5466621862942702
 20
177.1191058088242016
 30
0.0
 40
17.0
  1
TOPZERO
  0
TEXT
  5
BCA
  8
0
 10
59.5466621862942702
 20
148.7857724754910009
 30
0.0
 40
17.0
  1
www.topzero.com
  0
ENDBLK
  5
BCC
  8
0
  0
BLOCK
  8
0
  2
*U208
 70
     1
 10
0.0
 20
0.0
 30
0.0
  3
*U208
  1

  0
TEXT
  5
BCE
  8
0
 10
584.9674496149400511
 20
189.7032510808330983
 30
0.0
 40
18.0
  1
26''  LARGE SINGLE BOWL
  0
ENDBLK
  5
BD0
  8
0
  0
BLOCK
  8
0
  2
*U209
 70
     1
 10
0.0
 20
0.0
 30
0.0
  3
*U209
  1

  0
TEXT
  5
BD2
  8
0
 10
402.1022274243732113
 20
82.1977865326348365
 30
0.0
 40
15.0
  1
Stainless
  0
TEXT
  5
BD3
  8
0
 10
402.1022274243732113
 20
57.1977865326348365
 30
0.0
 40
15.0
  1
steel
  0
ENDBLK
  5
BD5
  8
0
  0
BLOCK
  8
0
  2
*U210
 70
     1
 10
0.0
 20
0.0
 30
0.0
  3
*U210
  1

  0
TEXT
  5
BD7
  8
0
 10
807.7634996203430546
 20
62.9406755645014471
 30
0.0
 40
21.9959999999999987
  1
TZ M662
  0
ENDBLK
  5
BD9
  8
0
  0
BLOCK
  8
0
  2
*U211
 70
     1
 10
0.0
 20
0.0
 30
0.0
  3
*U211
  1

  0
TEXT
  5
BDB
  8
0
 10
1278.6481635484578874
 20
66.5024218972548624
 30
0.0
 40
20.0
  1
10/2020
  0
ENDBLK
  5
BDD
  8
0
  0
BLOCK
  8
0
  2
*U212
 70
     1
 10
0.0
 20
0.0
 30
0.0
  3
*U212
  1

  0
TEXT
  5
BDF
  8
0
 10
1433.6891470863670293
 20
1198.5390063255370023
 30
0.0
 40
20.0
  1
mm
  0
TEXT
  5
BE0
  8
0
 10
1407.0224804197000594
 20
1165.2056729922039722
 30
0.0
 40
20.0
  1
[
  0
TEXT
  5
BE1
  8
0
 10
1420.3558137530330896
 20
1165.2056729922039722
 30
0.0
 40
20.0
  1
inch
  0
TEXT
  5
BE2
  8
0
 10
1487.0224804197000594
 20
1165.2056729922039722
 30
0.0
 40
20.0
  1
]
  0
ENDBLK
  5
BE4
  8
0
  0
BLOCK
  8
0
  2
*U213
 70
     1
 10
0.0
 20
0.0
 30
0.0
  3
*U213
  1

  0
TEXT
  5
BE6
  8
0
 10
1170.09861499211911
 20
244.9569679335754984
 30
0.0
 40
12.0
  1
This template file is meant to be a guideline
  0
TEXT
  5
BE7
  8
0
 10
1170.09861499211911
 20
224.9569679335754984
 30
0.0
 40
12.0
  1
and must be compared with the actual product
  0
TEXT
  5
BE8
  8
0
 10
1170.09861499211911
 20
204.9569679335754984
 30
0.0
 40
12.0
  1
which should always be present to ensure a
  0
TEXT
  5
BE9
  8
0
 10
1170.09861499211911
 20
184.9569679335754131
 30
0.0
 40
12.0
  1
perfect cut.Testing on a scrap piece before
  0
TEXT
  5
BEA
  8
0
 10
1170.09861499211911
 20
164.9569679335754984
 30
0.0
 40
12.0
  1
the final cut is always recommended.
  0
TEXT
  5
BEB
  8
0
 10
1170.09861499211911
 20
144.9569679335754131
 30
0.0
 40
12.0
  1
UKINOX IS NOT RESPONSIBLE FOR ANY IMPROPERLY
  0
TEXT
  5
BEC
  8
0
 10
1170.09861499211911
 20
124.9569679335753989
 30
0.0
 40
12.0
  1
CUT COUNTERTOP OR AN IMPROPER INSTALLATION.
  0
ENDBLK
  5
BEE
  8
0
  0
BLOCK
  8
0
  2
*U214
 70
     1
 10
0.0
 20
0.0
 30
0.0
  3
*U214
  1

  0
TEXT
  5
BF0
  8
0
 10
1024.8528305617969636
 20
893.8917424665874023
 30
0.0
 40
15.0
  1
Topzero 1,5 mm pozitive reveal
  0
ENDBLK
  5
BF2
  8
0
  0
BLOCK
  8
0
  2
*U215
 70
     1
 10
0.0
 20
0.0
 30
0.0
  3
*U215
  1

  0
TEXT
  5
BF8
  8
0
 62
     1
 10
1029.7671301624050102
 20
1010.3114225277120113
 30
0.0
 40
15.0
  1
Topzero zero reveal
  0
ENDBLK
  5
BFA
  8
0
  0
BLOCK
  8
0
  2
*U216
 70
     1
 10
0.0
 20
0.0
 30
0.0
  3
*U216
  1

  0
TEXT
  5
C00
  8
0
 62
     1
 10
245.5046560966775075
 20
939.9373756834584128
 30
0.0
 40
15.0
  1
[20
 50
90.0
  0
TEXT
  5
C01
  8
0
 62
     1
 10
236.2546560966775075
 20
979.1873756834585265
 30
0.0
 40
10.5
  1
1
 50
90.0
  0
LINE
  5
C02
  8
0
 62
     1
 10
238.0046560966775075
 20
977.4373756834584128
 30
0.0
 11
238.0046560966775075
 21
984.4373756834587539
 31
0.0
  0
TEXT
  5
C03
  8
0
 62
     1
 10
250.2546560966775075
 20
977.4373756834584128
 30
0.0
 40
10.5
  1
8
 50
90.0
  0
TEXT
  5
C04
  8
0
 62
     1
 10
245.5069060966775965
 20
987.9373756834587539
 30
0.0
 40
15.0045000000000002
  1
'']
 50
90.0
  0
ENDBLK
  5
C06
  8
0
  0
BLOCK
  8
0
  2
*U217
 70
     1
 10
0.0
 20
0.0
 30
0.0
  3
*U217
  1

  0
TEXT
  5
C08
  8
0
 62
     1
 10
690.3913916990732105
 20
1187.5528200302080677
 30
0.0
 40
15.0
  1
[26
  0
TEXT
  5
C09
  8
0
 62
     1
 10
732.1413916990730968
 20
1196.8028200302080677
 30
0.0
 40
10.5
  1
1
  0
LINE
  5
C0A
  8
0
 62
     1
 10
730.3913916990730968
 20
1195.0528200302080677
 30
0.0
 11
737.3913916990732105
 21
1195.0528200302080677
 31
0.0
  0
TEXT
  5
C0B
  8
0
 62
     1
 10
730.3913916990730968
 20
1182.8028200302080677
 30
0.0
 40
10.5
  1
8
  0
TEXT
  5
C0C
  8
0
 62
     1
 10
740.8913916990732105
 20
1187.5505700302080641
 30
0.0
 40
15.0045000000000002
  1
'']
  0
ENDBLK
  5
C0E
  8
0
  0
BLOCK
  8
0
  2
*U218
 70
     1
 10
0.0
 20
0.0
 30
0.0
  3
*U218
  1

  0
TEXT
  5
C10
  8
0
 10
3585.0515180150009655
 20
-1042.4231291866519769
 30
0.0
 40
17.0
  1
TOPZERO
  0
TEXT
  5
C11
  8
0
 10
3585.0515180150009655
 20
-1070.7564625199859165
 30
0.0
 40
17.0
  1
www.topzero.com
  0
ENDBLK
  5
C13
  8
0
  0
BLOCK
  8
0
  2
*U219
 70
     1
 10
0.0
 20
0.0
 30
0.0
  3
*U219
  1

  0
TEXT
  5
C15
  8
0
 10
4110.4723054436462917
 20
-1029.8389839146439044
 30
0.0
 40
18.0
  1
36''  LARGEEQUAL DOUBLE BOWL
  0
ENDBLK
  5
C17
  8
0
  0
BLOCK
  8
0
  2
*U220
 70
     1
 10
0.0
 20
0.0
 30
0.0
  3
*U220
  1

  0
TEXT
  5
C19
  8
0
 10
3927.607083253080873
 20
-1137.3444484628419104
 30
0.0
 40
15.0
  1
Stainless
  0
TEXT
  5
C1A
  8
0
 10
3927.607083253080873
 20
-1162.3444484628419104
 30
0.0
 40
15.0
  1
steel
  0
ENDBLK
  5
C1C
  8
0
  0
BLOCK
  8
0
  2
*U221
 70
     1
 10
0.0
 20
0.0
 30
0.0
  3
*U221
  1

  0
TEXT
  5
C1E
  8
0
 10
4333.2683554490486131
 20
-1156.6015594309760672
 30
0.0
 40
21.9959999999999987
  1
TZ M444.55
  0
ENDBLK
  5
C20
  8
0
  0
BLOCK
  8
0
  2
*U222
 70
     1
 10
0.0
 20
0.0
 30
0.0
  3
*U222
  1

  0
TEXT
  5
C22
  8
0
 10
4804.1530193771650374
 20
-1153.0398130982221119
 30
0.0
 40
20.0
  1
10/2020
  0
ENDBLK
  5
C24
  8
0
  0
BLOCK
  8
0
  2
*U223
 70
     1
 10
0.0
 20
0.0
 30
0.0
  3
*U223
  1

  0
TEXT
  5
C26
  8
0
 10
4959.1940029150737246
 20
-21.0032286699399684
 30
0.0
 40
20.0
  1
mm
  0
TEXT
  5
C27
  8
0
 10
4932.5273362484085737
 20
-54.3365620032732792
 30
0.0
 40
20.0
  1
[
  0
TEXT
  5
C28
  8
0
 10
4945.8606695817397849
 20
-54.3365620032732792
 30
0.0
 40
20.0
  1
inch
  0
TEXT
  5
C29
  8
0
 10
5012.5273362484085737
 20
-54.3365620032732792
 30
0.0
 40
20.0
  1
]
  0
ENDBLK
  5
C2B
  8
0
  0
BLOCK
  8
0
  2
*U224
 70
     1
 10
0.0
 20
0.0
 30
0.0
  3
*U224
  1

  0
TEXT
  5
C2D
  8
0
 10
4695.60347082082626
 20
-974.5852670619015043
 30
0.0
 40
12.0
  1
This template file is meant to be a guideline
  0
TEXT
  5
C2E
  8
0
 10
4695.60347082082626
 20
-994.5852670619007085
 30
0.0
 40
12.0
  1
and must be compared with the actual product
  0
TEXT
  5
C2F
  8
0
 10
4695.60347082082626
 20
-1014.5852670619010496
 30
0.0
 40
12.0
  1
which should always be present to ensure a
  0
TEXT
  5
C30
  8
0
 10
4695.60347082082626
 20
-1034.5852670619019591
 30
0.0
 40
12.0
  1
perfect cut.Testing on a scrap piece before
  0
TEXT
  5
C31
  8
0
 10
4695.60347082082626
 20
-1054.5852670619019591
 30
0.0
 40
12.0
  1
the final cut is always recommended.
  0
TEXT
  5
C32
  8
0
 10
4695.60347082082626
 20
-1074.5852670619019591
 30
0.0
 40
12.0
  1
UKINOX IS NOT RESPONSIBLE FOR ANY IMPROPERLY
  0
TEXT
  5
C33
  8
0
 10
4695.60347082082626
 20
-1094.5852670619010496
 30
0.0
 40
12.0
  1
CUT COUNTERTOP OR AN IMPROPER INSTALLATION.
  0
ENDBLK
  5
C35
  8
0
  0
BLOCK
  8
0
  2
*U225
 70
     1
 10
0.0
 20
0.0
 30
0.0
  3
*U225
  1

  0
TEXT
  5
C37
  8
0
 10
4690.3811748544421789
 20
-304.8347698818964773
 30
0.0
 40
15.0
  1
Topzero 1,5 mm pozitive reveal
  0
ENDBLK
  5
C39
  8
0
  0
BLOCK
  8
0
  2
*U226
 70
     1
 10
0.0
 20
0.0
 30
0.0
  3
*U226
  1

  0
TEXT
  5
C3F
  8
0
 62
     1
 10
4695.2954744550488613
 20
-183.5369512370374991
 30
0.0
 40
15.0
  1
Topzero zero reveal
  0
ENDBLK
  5
C41
  8
0
  0
BLOCK
  8
0
  2
*U227
 70
     1
 10
0.0
 20
0.0
 30
0.0
  3
*U227
  1

  0
TEXT
  5
C6F
  8
0
 62
     1
 10
19.7499969621394484
 20
0.0000003821312463
 30
0.0
 40
15.0
  1
[20
 50
90.0
  0
TEXT
  5
C70
  8
0
 62
     1
 10
10.4999969621394502
 20
39.2500003821312689
 30
0.0
 40
10.5
  1
1
 50
90.0
  0
LINE
  5
C71
  8
0
 62
     1
 10
12.2499969621394502
 20
37.5000003821312475
 30
0.0
 11
12.2499969621394502
 21
44.5000003821312475
 31
0.0
  0
TEXT
  5
C72
  8
0
 62
     1
 10
24.4999969621394484
 20
37.5000003821312475
 30
0.0
 40
10.5
  1
8
 50
90.0
  0
TEXT
  5
C73
  8
0
 62
     1
 10
19.7522469621394485
 20
48.0000003821312404
 30
0.0
 40
15.0045000000000002
  1
'']
 50
90.0
  0
ENDBLK
  5
C75
  8
0
  0
BLOCK
  8
0
  2
*U228
 70
     1
 10
0.0
 20
0.0
 30
0.0
  3
*U228
  1

  0
TEXT
  5
C77
  8
0
 62
     1
 10
3670.4871204258770376
 20
-275.1881991427583216
 30
0.0
 40
15.0
  1
[20
 50
90.0
  0
TEXT
  5
C78
  8
0
 62
     1
 10
3661.2371204258779471
 20
-235.9381991427582932
 30
0.0
 40
10.5
  1
1
 50
90.0
  0
LINE
  5
C79
  8
0
 62
     1
 10
3662.9871204258779471
 20
-237.6881991427582932
 30
0.0
 11
3662.9871204258779471
 21
-230.6881991427582932
 31
0.0
  0
TEXT
  5
C7A
  8
0
 62
     1
 10
3675.2371204258779471
 20
-237.6881991427582932
 30
0.0
 40
10.5
  1
8
 50
90.0
  0
TEXT
  5
C7B
  8
0
 62
     1
 10
3670.4893704258788603
 20
-227.1881991427582932
 30
0.0
 40
15.0045000000000002
  1
'']
 50
90.0
  0
ENDBLK
  5
C7D
  8
0
  0
BLOCK
  8
0
  2
*U229
 70
     1
 10
0.0
 20
0.0
 30
0.0
  3
*U229
  1

  0
TEXT
  5
C7F
  8
0
 62
     1
 10
0.0000028493395803
 20
4.7499996869402628
 30
0.0
 40
15.0
  1
[32
  0
TEXT
  5
C80
  8
0
 62
     1
 10
41.7500028493395732
 20
13.9999996869402601
 30
0.0
 40
10.5
  1
1
  0
LINE
  5
C81
  8
0
 62
     1
 10
40.0000028493395732
 20
12.2499996869402601
 30
0.0
 11
47.0000028493395803
 21
12.2499996869402601
 31
0.0
  0
TEXT
  5
C82
  8
0
 62
     1
 10
40.0000028493395732
 20
-0.0000003130597364
 30
0.0
 40
10.5
  1
8
  0
TEXT
  5
C83
  8
0
 62
     1
 10
50.5000028493395803
 20
4.7477496869402627
 30
0.0
 40
15.0045000000000002
  1
'']
  0
ENDBLK
  5
C85
  8
0
  0
BLOCK
  8
0
  2
*U230
 70
     1
 10
0.0
 20
0.0
 30
0.0
  3
*U230
  1

  0
TEXT
  5
C87
  8
0
 62
     1
 10
4222.2712808348269391
 20
-31.4540696359016003
 30
0.0
 40
15.0
  1
[36
  0
TEXT
  5
C88
  8
0
 62
     1
 10
4264.0212808348269391
 20
-22.204069635901611
 30
0.0
 40
10.5
  1
1
  0
LINE
  5
C89
  8
0
 62
     1
 10
4262.2712808348260296
 20
-23.9540696359016003
 30
0.0
 11
4269.2712808348269391
 21
-23.9540696359016003
 31
0.0
  0
TEXT
  5
C8A
  8
0
 62
     1
 10
4262.2712808348260296
 20
-36.204069635901611
 30
0.0
 40
10.5
  1
8
  0
TEXT
  5
C8B
  8
0
 62
     1
 10
4272.7712808348269391
 20
-31.4563196359016004
 30
0.0
 40
15.0045000000000002
  1
'']
  0
ENDBLK
  5
C8D
  8
0
  0
BLOCK
  8
0
  2
*U231
 70
     1
 10
0.0
 20
0.0
 30
0.0
  3
*U231
  1

  0
TEXT
  5
CA3
  8
0
 10
59.5466610215648871
 20
177.1191058088261059
 30
0.0
 40
17.0
  1
TOPZERO
  0
TEXT
  5
CA4
  8
0
 10
59.5466610215648871
 20
148.7857724754927915
 30
0.0
 40
17.0
  1
www.topzero.com
  0
ENDBLK
  5
CA6
  8
0
  0
BLOCK
  8
0
  2
*U232
 70
     1
 10
0.0
 20
0.0
 30
0.0
  3
*U232
  1

  0
TEXT
  5
CA8
  8
0
 10
584.9674484502099858
 20
189.7032510808348889
 30
0.0
 40
18.0
  1
36''  LARGEEQUAL DOUBLE BOWL
  0
ENDBLK
  5
CAA
  8
0
  0
BLOCK
  8
0
  2
*U233
 70
     1
 10
0.0
 20
0.0
 30
0.0
  3
*U233
  1

  0
TEXT
  5
CAC
  8
0
 10
402.102226259643885
 20
82.1977865326366555
 30
0.0
 40
15.0
  1
Stainless
  0
TEXT
  5
CAD
  8
0
 10
402.102226259643885
 20
57.1977865326366626
 30
0.0
 40
15.0
  1
steel
  0
ENDBLK
  5
CAF
  8
0
  0
BLOCK
  8
0
  2
*U234
 70
     1
 10
0.0
 20
0.0
 30
0.0
  3
*U234
  1

  0
TEXT
  5
CB1
  8
0
 10
807.7634984556134441
 20
62.9406755645032803
 30
0.0
 40
21.9959999999999987
  1
TZ M444.55
  0
ENDBLK
  5
CB3
  8
0
  0
BLOCK
  8
0
  2
*U235
 70
     1
 10
0.0
 20
0.0
 30
0.0
  3
*U235
  1

  0
TEXT
  5
CB5
  8
0
 10
1278.6481623837280495
 20
66.5024218972566814
 30
0.0
 40
20.0
  1
10/2020
  0
ENDBLK
  5
CB7
  8
0
  0
BLOCK
  8
0
  2
*U236
 70
     1
 10
0.0
 20
0.0
 30
0.0
  3
*U236
  1

  0
TEXT
  5
CB9
  8
0
 10
1433.6891459216381008
 20
1198.5390063255390487
 30
0.0
 40
20.0
  1
mm
  0
TEXT
  5
CBA
  8
0
 10
1407.0224792549709036
 20
1165.2056729922060185
 30
0.0
 40
20.0
  1
[
  0
TEXT
  5
CBB
  8
0
 10
1420.3558125883050707
 20
1165.2056729922060185
 30
0.0
 40
20.0
  1
inch
  0
TEXT
  5
CBC
  8
0
 10
1487.0224792549690846
 20
1165.2056729922060185
 30
0.0
 40
20.0
  1
]
  0
ENDBLK
  5
CBE
  8
0
  0
BLOCK
  8
0
  2
*U237
 70
     1
 10
0.0
 20
0.0
 30
0.0
  3
*U237
  1

  0
TEXT
  5
CC0
  8
0
 10
1170.0986138273890447
 20
244.9569679335772889
 30
0.0
 40
12.0
  1
This template file is meant to be a guideline
  0
TEXT
  5
CC1
  8
0
 10
1170.0986138273890447
 20
224.9569679335772889
 30
0.0
 40
12.0
  1
and must be compared with the actual product
  0
TEXT
  5
CC2
  8
0
 10
1170.0986138273890447
 20
204.9569679335772037
 30
0.0
 40
12.0
  1
which should always be present to ensure a
  0
TEXT
  5
CC3
  8
0
 10
1170.0986138273890447
 20
184.9569679335772037
 30
0.0
 40
12.0
  1
perfect cut.Testing on a scrap piece before
  0
TEXT
  5
CC4
  8
0
 10
1170.0986138273890447
 20
164.9569679335772889
 30
0.0
 40
12.0
  1
the final cut is always recommended.
  0
TEXT
  5
CC5
  8
0
 10
1170.0986138273890447
 20
144.9569679335772889
 30
0.0
 40
12.0
  1
UKINOX IS NOT RESPONSIBLE FOR ANY IMPROPERLY
  0
TEXT
  5
CC6
  8
0
 10
1170.0986138273890447
 20
124.9569679335773031
 30
0.0
 40
12.0
  1
CUT COUNTERTOP OR AN IMPROPER INSTALLATION.
  0
ENDBLK
  5
CC8
  8
0
  0
BLOCK
  8
0
  2
*U238
 70
     1
 10
0.0
 20
0.0
 30
0.0
  3
*U238
  1

  0
TEXT
  5
CCA
  8
0
 10
1164.8763178610049636
 20
914.7074651135822023
 30
0.0
 40
15.0
  1
Topzero 1,5 mm pozitive reveal
  0
ENDBLK
  5
CCC
  8
0
  0
BLOCK
  8
0
  2
*U239
 70
     1
 10
0.0
 20
0.0
 30
0.0
  3
*U239
  1

  0
TEXT
  5
CD2
  8
0
 62
     1
 10
1169.7906174616121007
 20
1036.0052837584410099
 30
0.0
 40
15.0
  1
Topzero zero reveal
  0
ENDBLK
  5
CD4
  8
0
  0
BLOCK
  8
0
  2
*U240
 70
     1
 10
0.0
 20
0.0
 30
0.0
  3
*U240
  1

  0
TEXT
  5
CDA
  8
0
 62
     1
 10
144.9822634324409023
 20
944.3540358527199032
 30
0.0
 40
15.0
  1
[20
 50
90.0
  0
TEXT
  5
CDB
  8
0
 62
     1
 10
135.7322634324409023
 20
983.6040358527199032
 30
0.0
 40
10.5
  1
1
 50
90.0
  0
LINE
  5
CDC
  8
0
 62
     1
 10
137.4822634324409023
 20
981.8540358527199032
 30
0.0
 11
137.4822634324409023
 21
988.8540358527199032
 31
0.0
  0
TEXT
  5
CDD
  8
0
 62
     1
 10
149.7322634324409023
 20
981.8540358527199032
 30
0.0
 40
10.5
  1
8
 50
90.0
  0
TEXT
  5
CDE
  8
0
 62
     1
 10
144.9845134324409059
 20
992.3540358527208127
 30
0.0
 40
15.0045000000000002
  1
'']
 50
90.0
  0
ENDBLK
  5
CE0
  8
0
  0
BLOCK
  8
0
  2
*U241
 70
     1
 10
0.0
 20
0.0
 30
0.0
  3
*U241
  1

  0
TEXT
  5
CE2
  8
0
 62
     1
 10
696.7664238413900648
 20
1188.0881653595770331
 30
0.0
 40
15.0
  1
[32
  0
TEXT
  5
CE3
  8
0
 62
     1
 10
738.5164238413899511
 20
1197.3381653595770331
 30
0.0
 40
10.5
  1
1
  0
LINE
  5
CE4
  8
0
 62
     1
 10
736.7664238413899511
 20
1195.5881653595770331
 30
0.0
 11
743.7664238413899511
 21
1195.5881653595770331
 31
0.0
  0
TEXT
  5
CE5
  8
0
 62
     1
 10
736.7664238413899511
 20
1183.3381653595770331
 30
0.0
 40
10.5
  1
8
  0
TEXT
  5
CE6
  8
0
 62
     1
 10
747.2664238413899511
 20
1188.0859153595770294
 30
0.0
 40
15.0045000000000002
  1
'']
  0
ENDBLK
  5
CE8
  8
0
  0
BLOCK
  8
0
  2
*U242
 70
     1
 10
0.0
 20
0.0
 30
0.0
  3
*U242
  1

  0
TEXT
  5
CEA
  8
0
 10
5539.6052838558516669
 20
-1042.4231297877290672
 30
0.0
 40
17.0
  1
TOPZERO
  0
TEXT
  5
CEB
  8
0
 10
5539.6052838558516669
 20
-1070.7564631210620973
 30
0.0
 40
17.0
  1
www.topzero.com
  0
ENDBLK
  5
CED
  8
0
  0
BLOCK
  8
0
  2
*U243
 70
     1
 10
0.0
 20
0.0
 30
0.0
  3
*U243
  1

  0
TEXT
  5
CEF
  8
0
 10
6065.0260712844983573
 20
-1029.8389845157200853
 30
0.0
 40
18.0
  1
32''  LARGEEQUAL DOUBLE BOWL
  0
ENDBLK
  5
CF1
  8
0
  0
BLOCK
  8
0
  2
*U244
 70
     1
 10
0.0
 20
0.0
 30
0.0
  3
*U244
  1

  0
TEXT
  5
CF3
  8
0
 10
5882.1608490939297553
 20
-1137.3444490639180913
 30
0.0
 40
15.0
  1
Stainless
  0
TEXT
  5
CF4
  8
0
 10
5882.1608490939297553
 20
-1162.3444490639180913
 30
0.0
 40
15.0
  1
steel
  0
ENDBLK
  5
CF6
  8
0
  0
BLOCK
  8
0
  2
*U245
 70
     1
 10
0.0
 20
0.0
 30
0.0
  3
*U245
  1

  0
TEXT
  5
CF8
  8
0
 10
6287.8221212899006787
 20
-1156.6015600320520207
 30
0.0
 40
21.9959999999999987
  1
TZ M395.55
  0
ENDBLK
  5
CFA
  8
0
  0
BLOCK
  8
0
  2
*U246
 70
     1
 10
0.0
 20
0.0
 30
0.0
  3
*U246
  1

  0
TEXT
  5
CFC
  8
0
 10
6758.7067852180161935
 20
-1153.0398136992980653
 30
0.0
 40
20.0
  1
10/2020
  0
ENDBLK
  5
CFE
  8
0
  0
BLOCK
  8
0
  2
*U247
 70
     1
 10
0.0
 20
0.0
 30
0.0
  3
*U247
  1

  0
TEXT
  5
D00
  8
0
 10
6913.7477687559248807
 20
-21.003229271015929
 30
0.0
 40
20.0
  1
mm
  0
TEXT
  5
D01
  8
0
 10
6887.0811020892579108
 20
-54.3365626043492611
 30
0.0
 40
20.0
  1
[
  0
TEXT
  5
D02
  8
0
 10
6900.414435422590941
 20
-54.3365626043492611
 30
0.0
 40
20.0
  1
inch
  0
TEXT
  5
D03
  8
0
 10
6967.0811020892588203
 20
-54.3365626043492611
 30
0.0
 40
20.0
  1
]
  0
ENDBLK
  5
D05
  8
0
  0
BLOCK
  8
0
  2
*U248
 70
     1
 10
0.0
 20
0.0
 30
0.0
  3
*U248
  1

  0
TEXT
  5
D07
  8
0
 10
6650.1572366616774161
 20
-974.5852676629779126
 30
0.0
 40
12.0
  1
This template file is meant to be a guideline
  0
TEXT
  5
D08
  8
0
 10
6650.1572366616774161
 20
-994.5852676629775715
 30
0.0
 40
12.0
  1
and must be compared with the actual product
  0
TEXT
  5
D09
  8
0
 10
6650.1572366616774161
 20
-1014.5852676629780262
 30
0.0
 40
12.0
  1
which should always be present to ensure a
  0
TEXT
  5
D0A
  8
0
 10
6650.1572366616774161
 20
-1034.5852676629770031
 30
0.0
 40
12.0
  1
perfect cut.Testing on a scrap piece before
  0
TEXT
  5
D0B
  8
0
 10
6650.1572366616774161
 20
-1054.5852676629770031
 30
0.0
 40
12.0
  1
the final cut is always recommended.
  0
TEXT
  5
D0C
  8
0
 10
6650.1572366616774161
 20
-1074.5852676629770031
 30
0.0
 40
12.0
  1
UKINOX IS NOT RESPONSIBLE FOR ANY IMPROPERLY
  0
TEXT
  5
D0D
  8
0
 10
6650.1572366616774161
 20
-1094.5852676629770031
 30
0.0
 40
12.0
  1
CUT COUNTERTOP OR AN IMPROPER INSTALLATION.
  0
ENDBLK
  5
D0F
  8
0
  0
BLOCK
  8
0
  2
*U249
 70
     1
 10
0.0
 20
0.0
 30
0.0
  3
*U249
  1

  0
TEXT
  5
D11
  8
0
 10
6644.934940695293335
 20
-304.8347704829724876
 30
0.0
 40
15.0
  1
Topzero 1,5 mm pozitive reveal
  0
ENDBLK
  5
D13
  8
0
  0
BLOCK
  8
0
  2
*U250
 70
     1
 10
0.0
 20
0.0
 30
0.0
  3
*U250
  1

  0
TEXT
  5
D19
  8
0
 62
     1
 10
6649.8492402958991079
 20
-183.5369518381135094
 30
0.0
 40
15.0
  1
Topzero zero reveal
  0
ENDBLK
  5
D1B
  8
0
  0
BLOCK
  8
0
  2
*U251
 70
     1
 10
0.0
 20
0.0
 30
0.0
  3
*U251
  1

  0
TEXT
  5
D61
  8
0
 62
     1
 10
19.7499969621385212
 20
0.0000003821321558
 30
0.0
 40
15.0
  1
[20
 50
90.0
  0
TEXT
  5
D62
  8
0
 62
     1
 10
10.4999969621385407
 20
39.250000382132157
 30
0.0
 40
10.5
  1
1
 50
90.0
  0
LINE
  5
D63
  8
0
 62
     1
 10
12.2499969621385407
 20
37.500000382132157
 30
0.0
 11
12.2499969621385407
 21
44.5000003821321428
 31
0.0
  0
TEXT
  5
D64
  8
0
 62
     1
 10
24.4999969621385496
 20
37.500000382132157
 30
0.0
 40
10.5
  1
8
 50
90.0
  0
TEXT
  5
D65
  8
0
 62
     1
 10
19.7522469621385106
 20
48.000000382132157
 30
0.0
 40
15.0045000000000002
  1
'']
 50
90.0
  0
ENDBLK
  5
D67
  8
0
  0
BLOCK
  8
0
  2
*U252
 70
     1
 10
0.0
 20
0.0
 30
0.0
  3
*U252
  1

  0
TEXT
  5
D69
  8
0
 62
     1
 10
5687.0964305105399035
 20
-256.9940686814804849
 30
0.0
 40
15.0
  1
[20
 50
90.0
  0
TEXT
  5
D6A
  8
0
 62
     1
 10
5677.8464305105380845
 20
-217.7440686814805133
 30
0.0
 40
10.5
  1
1
 50
90.0
  0
LINE
  5
D6B
  8
0
 62
     1
 10
5679.5964305105399035
 20
-219.4940686814805133
 30
0.0
 11
5679.5964305105399035
 21
-212.4940686814805133
 31
0.0
  0
TEXT
  5
D6C
  8
0
 62
     1
 10
5691.8464305105399035
 20
-219.4940686814805133
 30
0.0
 40
10.5
  1
8
 50
90.0
  0
TEXT
  5
D6D
  8
0
 62
     1
 10
5687.0986805105412714
 20
-208.9940686814805133
 30
0.0
 40
15.0045000000000002
  1
'']
 50
90.0
  0
ENDBLK
  5
D6F
  8
0
  0
BLOCK
  8
0
  2
*U253
 70
     1
 10
0.0
 20
0.0
 30
0.0
  3
*U253
  1

  0
TEXT
  5
D71
  8
0
 62
     1
 10
0.0000028493386708
 20
4.7499996869407184
 30
0.0
 40
15.0
  1
[32
  0
TEXT
  5
D72
  8
0
 62
     1
 10
41.7500028493386708
 20
13.9999996869407202
 30
0.0
 40
10.5
  1
1
  0
LINE
  5
D73
  8
0
 62
     1
 10
40.0000028493386708
 20
12.2499996869407202
 30
0.0
 11
47.0000028493386566
 21
12.2499996869407202
 31
0.0
  0
TEXT
  5
D74
  8
0
 62
     1
 10
40.0000028493386708
 20
-0.0000003130592816
 30
0.0
 40
10.5
  1
8
  0
TEXT
  5
D75
  8
0
 62
     1
 10
50.5000028493386921
 20
4.7477496869407183
 30
0.0
 40
15.0045000000000002
  1
'']
  0
ENDBLK
  5
D77
  8
0
  0
BLOCK
  8
0
  2
*U254
 70
     1
 10
0.0
 20
0.0
 30
0.0
  3
*U254
  1

  0
TEXT
  5
D79
  8
0
 62
     1
 10
6203.0659337197421337
 20
-9.6989880296358226
 30
0.0
 40
15.0
  1
[32
  0
TEXT
  5
D7A
  8
0
 62
     1
 10
6244.8159337197421337
 20
-0.4489880296358211
 30
0.0
 40
10.5
  1
1
  0
LINE
  5
D7B
  8
0
 62
     1
 10
6243.0659337197421337
 20
-2.1989880296358191
 30
0.0
 11
6250.0659337197421337
 21
-2.1989880296358191
 31
0.0
  0
TEXT
  5
D7C
  8
0
 62
     1
 10
6243.0659337197421337
 20
-14.4489880296358209
 30
0.0
 40
10.5
  1
8
  0
TEXT
  5
D7D
  8
0
 62
     1
 10
6253.5659337197421337
 20
-9.7012380296358192
 30
0.0
 40
15.0045000000000002
  1
'']
  0
ENDBLK
  5
D7F
  8
0
  0
BLOCK
  8
0
  2
*D255
 70
     1
 10
0.0
 20
0.0
 30
0.0
  3
*D255
  1

  0
LINE
  5
FC1
  8
0
 62
     0
 10
4514.7041321806018459
 20
1488.0542592204330958
 30
0.0
 11
3725.7041321806050291
 21
1488.0542592204330958
 31
0.0
  0
SOLID
  5
FC2
  8
0
 62
     0
 10
4514.7041321806018459
 20
1490.5542592204330958
 30
0.0
 11
4514.7041321806018459
 21
1485.5542592204330958
 31
0.0
 12
4529.7041321806018459
 22
1488.0542592204330958
 32
0.0
 13
4529.7041321806018459
 23
1488.0542592204330958
 33
0.0
  0
SOLID
  5
FC3
  8
0
 62
     0
 10
3725.7041321806050291
 20
1490.5542592204330958
 30
0.0
 11
3725.7041321806050291
 21
1485.5542592204330958
 31
0.0
 12
3710.7041321806041196
 22
1488.0542592204330958
 32
0.0
 13
3710.7041321806041196
 23
1488.0542592204330958
 33
0.0
  0
INSERT
  5
FC4
  8
0
  2
*U256
 10
0.0
 20
0.0
 30
0.0
  0
POINT
  5
FC5
  8
DEFPOINTS
 62
     0
 10
4529.7041321806018459
 20
1393.634607922692112
 30
0.0
  0
POINT
  5
FC6
  8
DEFPOINTS
 62
     0
 10
3710.7041321806041196
 20
1393.634607922692112
 30
0.0
  0
POINT
  5
FC7
  8
DEFPOINTS
 62
     0
 10
3710.7041321806041196
 20
1488.0542592204330958
 30
0.0
  0
ENDBLK
  5
FC9
  8
0
  0
BLOCK
  8
0
  2
*U256
 70
     1
 10
0.0
 20
0.0
 30
0.0
  3
*U256
  1

  0
TEXT
  5
1099
  8
0
 62
     0
 10
4102.7041321806036649
 20
1498.0542592204330958
 30
0.0
 40
15.0
  1
819
  0
ENDBLK
  5
109B
  8
0
  0
BLOCK
  8
0
  2
*D257
 70
     1
 10
0.0
 20
0.0
 30
0.0
  3
*D257
  1

  0
LINE
  5
FCB
  8
0
 62
     0
 10
3727.2041321806050291
 20
1434.502289142689051
 30
0.0
 11
4513.2041321806018459
 21
1434.502289142689051
 31
0.0
  0
SOLID
  5
FCC
  8
0
 62
     0
 10
3727.2041321806050291
 20
1437.002289142689051
 30
0.0
 11
3727.2041321806050291
 21
1432.002289142689051
 31
0.0
 12
3712.2041321806041196
 22
1434.502289142689051
 32
0.0
 13
3712.2041321806041196
 23
1434.502289142689051
 33
0.0
  0
SOLID
  5
FCD
  8
0
 62
     0
 10
4513.2041321806018459
 20
1437.002289142689051
 30
0.0
 11
4513.2041321806018459
 21
1432.002289142689051
 31
0.0
 12
4528.2041321806018459
 22
1434.502289142689051
 32
0.0
 13
4528.2041321806018459
 23
1434.502289142689051
 33
0.0
  0
INSERT
  5
FCE
  8
0
  2
*U258
 10
0.0
 20
0.0
 30
0.0
  0
POINT
  5
FCF
  8
DEFPOINTS
 62
     0
 10
3712.2041321806041196
 20
1393.634607922692112
 30
0.0
  0
POINT
  5
FD0
  8
DEFPOINTS
 62
     0
 10
4528.2041321806018459
 20
1393.634607922692112
 30
0.0
  0
POINT
  5
FD1
  8
DEFPOINTS
 62
     0
 10
4528.2041321806018459
 20
1434.502289142689051
 30
0.0
  0
ENDBLK
  5
FD3
  8
0
  0
BLOCK
  8
0
  2
*U258
 70
     1
 10
0.0
 20
0.0
 30
0.0
  3
*U258
  1

  0
TEXT
  5
109D
  8
0
 62
     0
 10
4102.7041321806036649
 20
1444.502289142689051
 30
0.0
 40
15.0
  1
816
  0
ENDBLK
  5
109F
  8
0
  0
BLOCK
  8
0
  2
*D259
 70
     1
 10
0.0
 20
0.0
 30
0.0
  3
*D259
  1

  0
LINE
  5
FD5
  8
0
 62
     0
 10
3635.7160358583969355
 20
904.6346079226915435
 30
0.0
 11
3635.7160358583969355
 21
1391.634607922692112
 31
0.0
  0
SOLID
  5
FD6
  8
0
 62
     0
 10
3633.216035858397845
 20
904.6346079226915435
 30
0.0
 11
3638.2160358583969355
 21
904.6346079226915435
 31
0.0
 12
3635.7160358583969355
 22
889.634607922692112
 32
0.0
 13
3635.7160358583969355
 23
889.634607922692112
 33
0.0
  0
SOLID
  5
FD7
  8
0
 62
     0
 10
3633.216035858397845
 20
1391.634607922692112
 30
0.0
 11
3638.2160358583969355
 21
1391.634607922692112
 31
0.0
 12
3635.7160358583969355
 22
1406.634607922692112
 32
0.0
 13
3635.7160358583969355
 23
1406.634607922692112
 33
0.0
  0
INSERT
  5
FD8
  8
0
  2
*U260
 10
0.0
 20
0.0
 30
0.0
  0
POINT
  5
FD9
  8
DEFPOINTS
 62
     0
 10
3723.7041321806059386
 20
889.634607922692112
 30
0.0
  0
POINT
  5
FDA
  8
DEFPOINTS
 62
     0
 10
3723.7041321806059386
 20
1406.634607922692112
 30
0.0
  0
POINT
  5
FDB
  8
DEFPOINTS
 62
     0
 10
3635.7160358583969355
 20
1406.634607922692112
 30
0.0
  0
ENDBLK
  5
FDD
  8
0
  0
BLOCK
  8
0
  2
*U260
 70
     1
 10
0.0
 20
0.0
 30
0.0
  3
*U260
  1

  0
TEXT
  5
10A1
  8
0
 62
     0
 10
3625.716035858397845
 20
1130.634607922692112
 30
0.0
 40
15.0
  1
517
 50
90.0
  0
ENDBLK
  5
10A3
  8
0
  0
BLOCK
  8
0
  2
*D261
 70
     1
 10
0.0
 20
0.0
 30
0.0
  3
*D261
  1

  0
LINE
  5
FDF
  8
0
 62
     0
 10
3681.8782297179768648
 20
1390.134607922692112
 30
0.0
 11
3681.8782297179768648
 21
906.134607922692453
 31
0.0
  0
SOLID
  5
FE0
  8
0
 62
     0
 10
3679.3782297179777743
 20
1390.134607922692112
 30
0.0
 11
3684.3782297179768648
 21
1390.134607922692112
 31
0.0
 12
3681.8782297179768648
 22
1405.134607922692112
 32
0.0
 13
3681.8782297179768648
 23
1405.134607922692112
 33
0.0
  0
SOLID
  5
FE1
  8
0
 62
     0
 10
3679.3782297179777743
 20
906.134607922692453
 30
0.0
 11
3684.3782297179768648
 21
906.134607922692453
 31
0.0
 12
3681.8782297179768648
 22
891.134607922692453
 32
0.0
 13
3681.8782297179768648
 23
891.134607922692453
 33
0.0
  0
INSERT
  5
FE2
  8
0
  2
*U262
 10
0.0
 20
0.0
 30
0.0
  0
POINT
  5
FE3
  8
DEFPOINTS
 62
     0
 10
3723.7041321806059386
 20
1405.134607922692112
 30
0.0
  0
POINT
  5
FE4
  8
DEFPOINTS
 62
     0
 10
3723.7041321806059386
 20
891.134607922692453
 30
0.0
  0
POINT
  5
FE5
  8
DEFPOINTS
 62
     0
 10
3681.8782297179768648
 20
891.134607922692453
 30
0.0
  0
ENDBLK
  5
FE7
  8
0
  0
BLOCK
  8
0
  2
*U262
 70
     1
 10
0.0
 20
0.0
 30
0.0
  3
*U262
  1

  0
TEXT
  5
10A5
  8
0
 62
     0
 10
3671.8782297179768648
 20
1130.6346079226930215
 30
0.0
 40
15.0
  1
514
 50
90.0
  0
ENDBLK
  5
10A7
  8
0
  0
BLOCK
  8
0
  2
*D263
 70
     1
 10
0.0
 20
0.0
 30
0.0
  3
*D263
  1

  0
LINE
  5
FE9
  8
0
 62
     0
 10
5763.3370518275851282
 20
1460.0366130835141121
 30
0.0
 11
6400.3370518275860377
 21
1460.0366130835141121
 31
0.0
  0
SOLID
  5
FEA
  8
0
 62
     0
 10
5763.3370518275851282
 20
1462.5366130835141121
 30
0.0
 11
5763.3370518275851282
 21
1457.5366130835141121
 31
0.0
 12
5748.3370518275860377
 22
1460.0366130835141121
 32
0.0
 13
5748.3370518275860377
 23
1460.0366130835141121
 33
0.0
  0
SOLID
  5
FEB
  8
0
 62
     0
 10
6400.3370518275860377
 20
1462.5366130835141121
 30
0.0
 11
6400.3370518275860377
 21
1457.5366130835141121
 31
0.0
 12
6415.3370518275842187
 22
1460.0366130835141121
 32
0.0
 13
6415.3370518275842187
 23
1460.0366130835141121
 33
0.0
  0
INSERT
  5
FEC
  8
0
  2
*U264
 10
0.0
 20
0.0
 30
0.0
  0
POINT
  5
FED
  8
DEFPOINTS
 62
     0
 10
5748.3370518275860377
 20
1376.7888329762599824
 30
0.0
  0
POINT
  5
FEE
  8
DEFPOINTS
 62
     0
 10
6415.3370518275842187
 20
1376.7888329762599824
 30
0.0
  0
POINT
  5
FEF
  8
DEFPOINTS
 62
     0
 10
6415.3370518275842187
 20
1460.0366130835141121
 30
0.0
  0
ENDBLK
  5
FF1
  8
0
  0
BLOCK
  8
0
  2
*U264
 70
     1
 10
0.0
 20
0.0
 30
0.0
  3
*U264
  1

  0
TEXT
  5
10A9
  8
0
 62
     0
 10
6061.8370518275851282
 20
1470.0366130835141121
 30
0.0
 40
15.0
  1
667
  0
ENDBLK
  5
10AB
  8
0
  0
BLOCK
  8
0
  2
*D265
 70
     1
 10
0.0
 20
0.0
 30
0.0
  3
*D265
  1

  0
LINE
  5
FF3
  8
0
 62
     0
 10
5764.8370518275851282
 20
1412.5324862040479275
 30
0.0
 11
6398.8370518275851282
 21
1412.5324862040479275
 31
0.0
  0
SOLID
  5
FF4
  8
0
 62
     0
 10
5764.8370518275851282
 20
1415.0324862040479275
 30
0.0
 11
5764.8370518275851282
 21
1410.0324862040479275
 31
0.0
 12
5749.8370518275860377
 22
1412.5324862040479275
 32
0.0
 13
5749.8370518275860377
 23
1412.5324862040479275
 33
0.0
  0
SOLID
  5
FF5
  8
0
 62
     0
 10
6398.8370518275851282
 20
1415.0324862040479275
 30
0.0
 11
6398.8370518275851282
 21
1410.0324862040479275
 31
0.0
 12
6413.8370518275842187
 22
1412.5324862040479275
 32
0.0
 13
6413.8370518275842187
 23
1412.5324862040479275
 33
0.0
  0
INSERT
  5
FF6
  8
0
  2
*U266
 10
0.0
 20
0.0
 30
0.0
  0
POINT
  5
FF7
  8
DEFPOINTS
 62
     0
 10
5749.8370518275860377
 20
1376.7888329762599824
 30
0.0
  0
POINT
  5
FF8
  8
DEFPOINTS
 62
     0
 10
6413.8370518275842187
 20
1376.7888329762599824
 30
0.0
  0
POINT
  5
FF9
  8
DEFPOINTS
 62
     0
 10
6413.8370518275842187
 20
1412.5324862040479275
 30
0.0
  0
ENDBLK
  5
FFB
  8
0
  0
BLOCK
  8
0
  2
*U266
 70
     1
 10
0.0
 20
0.0
 30
0.0
  3
*U266
  1

  0
TEXT
  5
10AD
  8
0
 62
     0
 10
6061.8370518275851282
 20
1422.5324862040479275
 30
0.0
 40
15.0
  1
664
  0
ENDBLK
  5
10AF
  8
0
  0
BLOCK
  8
0
  2
*D267
 70
     1
 10
0.0
 20
0.0
 30
0.0
  3
*D267
  1

  0
LINE
  5
FFD
  8
0
 62
     0
 10
5667.5164839832250436
 20
1374.7888329762599824
 30
0.0
 11
5667.5164839832250436
 21
888.7888329762613466
 31
0.0
  0
SOLID
  5
FFE
  8
0
 62
     0
 10
5665.0164839832250436
 20
1374.7888329762599824
 30
0.0
 11
5670.0164839832250436
 21
1374.7888329762599824
 31
0.0
 12
5667.5164839832250436
 22
1389.7888329762599824
 32
0.0
 13
5667.5164839832250436
 23
1389.7888329762599824
 33
0.0
  0
SOLID
  5
FFF
  8
0
 62
     0
 10
5665.0164839832250436
 20
888.7888329762613466
 30
0.0
 11
5670.0164839832250436
 21
888.7888329762613466
 31
0.0
 12
5667.5164839832250436
 22
873.7888329762613466
 32
0.0
 13
5667.5164839832250436
 23
873.7888329762613466
 33
0.0
  0
INSERT
  5
1000
  8
0
  2
*U268
 10
0.0
 20
0.0
 30
0.0
  0
POINT
  5
1001
  8
DEFPOINTS
 62
     0
 10
5761.3370518275851282
 20
1389.7888329762599824
 30
0.0
  0
POINT
  5
1002
  8
DEFPOINTS
 62
     0
 10
5761.3370518275851282
 20
873.7888329762613466
 30
0.0
  0
POINT
  5
1003
  8
DEFPOINTS
 62
     0
 10
5667.5164839832250436
 20
873.7888329762613466
 30
0.0
  0
ENDBLK
  5
1005
  8
0
  0
BLOCK
  8
0
  2
*U268
 70
     1
 10
0.0
 20
0.0
 30
0.0
  3
*U268
  1

  0
TEXT
  5
10B1
  8
0
 62
     0
 10
5657.5164839832259531
 20
1114.2888329762620288
 30
0.0
 40
15.0
  1
516
 50
90.0
  0
ENDBLK
  5
10B3
  8
0
  0
BLOCK
  8
0
  2
*D269
 70
     1
 10
0.0
 20
0.0
 30
0.0
  3
*D269
  1

  0
LINE
  5
1007
  8
0
 62
     0
 10
5716.8545702033861744
 20
1373.2888329762608919
 30
0.0
 11
5716.8545702033861744
 21
890.2888329762610056
 31
0.0
  0
SOLID
  5
1008
  8
0
 62
     0
 10
5714.3545702033861744
 20
1373.2888329762608919
 30
0.0
 11
5719.3545702033861744
 21
1373.2888329762608919
 31
0.0
 12
5716.8545702033861744
 22
1388.2888329762608919
 32
0.0
 13
5716.8545702033861744
 23
1388.2888329762608919
 33
0.0
  0
SOLID
  5
1009
  8
0
 62
     0
 10
5714.3545702033861744
 20
890.2888329762610056
 30
0.0
 11
5719.3545702033861744
 21
890.2888329762610056
 31
0.0
 12
5716.8545702033861744
 22
875.2888329762610056
 32
0.0
 13
5716.8545702033861744
 23
875.2888329762610056
 33
0.0
  0
INSERT
  5
100A
  8
0
  2
*U270
 10
0.0
 20
0.0
 30
0.0
  0
POINT
  5
100B
  8
DEFPOINTS
 62
     0
 10
5761.3370518275851282
 20
1388.2888329762608919
 30
0.0
  0
POINT
  5
100C
  8
DEFPOINTS
 62
     0
 10
5761.3370518275851282
 20
875.2888329762610056
 30
0.0
  0
POINT
  5
100D
  8
DEFPOINTS
 62
     0
 10
5716.8545702033861744
 20
875.2888329762610056
 30
0.0
  0
ENDBLK
  5
100F
  8
0
  0
BLOCK
  8
0
  2
*U270
 70
     1
 10
0.0
 20
0.0
 30
0.0
  3
*U270
  1

  0
TEXT
  5
10B5
  8
0
 62
     0
 10
5706.8545702033861744
 20
1114.2888329762620288
 30
0.0
 40
15.0
  1
513
 50
90.0
  0
ENDBLK
  5
10B7
  8
0
  0
BLOCK
  8
0
  2
*D271
 70
     1
 10
0.0
 20
0.0
 30
0.0
  3
*D271
  1

  0
LINE
  5
1011
  8
0
 62
     0
 10
4607.719252053373566
 20
1.5129098011539091
 30
0.0
 11
3716.7192520533749303
 21
1.5129098011539091
 31
0.0
  0
SOLID
  5
1012
  8
0
 62
     0
 10
4607.719252053373566
 20
4.0129098011539091
 30
0.0
 11
4607.719252053373566
 21
-0.9870901988460907
 31
0.0
 12
4622.719252053373566
 22
1.5129098011539091
 32
0.0
 13
4622.719252053373566
 23
1.5129098011539091
 33
0.0
  0
SOLID
  5
1013
  8
0
 62
     0
 10
3716.7192520533749303
 20
4.0129098011539091
 30
0.0
 11
3716.7192520533749303
 21
-0.9870901988460907
 31
0.0
 12
3701.7192520533758398
 22
1.5129098011539091
 32
0.0
 13
3701.7192520533758398
 23
1.5129098011539091
 33
0.0
  0
INSERT
  5
1014
  8
0
  2
*U272
 10
0.0
 20
0.0
 30
0.0
  0
POINT
  5
1015
  8
DEFPOINTS
 62
     0
 10
4622.719252053373566
 20
-75.4441373710133121
 30
0.0
  0
POINT
  5
1016
  8
DEFPOINTS
 62
     0
 10
3701.7192520533758398
 20
-75.4441373710132837
 30
0.0
  0
POINT
  5
1017
  8
DEFPOINTS
 62
     0
 10
3701.7192520533758398
 20
1.5129098011539091
 30
0.0
  0
ENDBLK
  5
1019
  8
0
  0
BLOCK
  8
0
  2
*U272
 70
     1
 10
0.0
 20
0.0
 30
0.0
  3
*U272
  1

  0
TEXT
  5
10B9
  8
0
 62
     0
 10
4144.7192520533762945
 20
11.5129098011539099
 30
0.0
 40
15.0
  1
921
  0
ENDBLK
  5
10BB
  8
0
  0
BLOCK
  8
0
  2
*D273
 70
     1
 10
0.0
 20
0.0
 30
0.0
  3
*D273
  1

  0
LINE
  5
101B
  8
0
 62
     0
 10
3718.2192520533749303
 20
-46.5165376784898328
 30
0.0
 11
4606.219252053373566
 21
-46.5165376784898328
 31
0.0
  0
SOLID
  5
101C
  8
0
 62
     0
 10
3718.2192520533749303
 20
-44.0165376784898328
 30
0.0
 11
3718.2192520533749303
 21
-49.0165376784898328
 31
0.0
 12
3703.2192520533758398
 22
-46.5165376784898328
 32
0.0
 13
3703.2192520533758398
 23
-46.5165376784898328
 33
0.0
  0
SOLID
  5
101D
  8
0
 62
     0
 10
4606.219252053373566
 20
-44.0165376784898328
 30
0.0
 11
4606.219252053373566
 21
-49.0165376784898328
 31
0.0
 12
4621.219252053373566
 22
-46.5165376784898328
 32
0.0
 13
4621.219252053373566
 23
-46.5165376784898328
 33
0.0
  0
INSERT
  5
101E
  8
0
  2
*U274
 10
0.0
 20
0.0
 30
0.0
  0
POINT
  5
101F
  8
DEFPOINTS
 62
     0
 10
3703.2192520533758398
 20
-75.4441373710133121
 30
0.0
  0
POINT
  5
1020
  8
DEFPOINTS
 62
     0
 10
4621.219252053373566
 20
-75.4441373710133121
 30
0.0
  0
POINT
  5
1021
  8
DEFPOINTS
 62
     0
 10
4621.219252053373566
 20
-46.5165376784898328
 30
0.0
  0
ENDBLK
  5
1023
  8
0
  0
BLOCK
  8
0
  2
*U274
 70
     1
 10
0.0
 20
0.0
 30
0.0
  3
*U274
  1

  0
TEXT
  5
10BD
  8
0
 62
     0
 10
4144.7192520533762945
 20
-36.5165376784898328
 30
0.0
 40
15.0
  1
918
  0
ENDBLK
  5
10BF
  8
0
  0
BLOCK
  8
0
  2
*D275
 70
     1
 10
0.0
 20
0.0
 30
0.0
  3
*D275
  1

  0
LINE
  5
1025
  8
0
 62
     0
 10
3636.8222223661691714
 20
-77.4441373710132837
 30
0.0
 11
3636.8222223661691714
 21
-562.4441373710133121
 31
0.0
  0
SOLID
  5
1026
  8
0
 62
     0
 10
3634.3222223661691714
 20
-77.4441373710132837
 30
0.0
 11
3639.3222223661691714
 21
-77.4441373710132837
 31
0.0
 12
3636.8222223661691714
 22
-62.4441373710132908
 32
0.0
 13
3636.8222223661691714
 23
-62.4441373710132908
 33
0.0
  0
SOLID
  5
1027
  8
0
 62
     0
 10
3634.3222223661691714
 20
-562.4441373710133121
 30
0.0
 11
3639.3222223661691714
 21
-562.4441373710133121
 31
0.0
 12
3636.8222223661691714
 22
-577.4441373710133121
 32
0.0
 13
3636.8222223661691714
 23
-577.4441373710133121
 33
0.0
  0
INSERT
  5
1028
  8
0
  2
*U276
 10
0.0
 20
0.0
 30
0.0
  0
POINT
  5
1029
  8
DEFPOINTS
 62
     0
 10
3714.7192520533758398
 20
-62.4441373710133192
 30
0.0
  0
POINT
  5
102A
  8
DEFPOINTS
 62
     0
 10
3714.7192520533740208
 20
-577.4441373710133121
 30
0.0
  0
POINT
  5
102B
  8
DEFPOINTS
 62
     0
 10
3636.8222223661691714
 20
-577.4441373710133121
 30
0.0
  0
ENDBLK
  5
102D
  8
0
  0
BLOCK
  8
0
  2
*U276
 70
     1
 10
0.0
 20
0.0
 30
0.0
  3
*U276
  1

  0
TEXT
  5
10C1
  8
0
 62
     0
 10
3626.8222223661691714
 20
-337.4441373710126868
 30
0.0
 40
15.0
  1
515
 50
90.0
  0
ENDBLK
  5
10C3
  8
0
  0
BLOCK
  8
0
  2
*D277
 70
     1
 10
0.0
 20
0.0
 30
0.0
  3
*D277
  1

  0
LINE
  5
102F
  8
0
 62
     0
 10
3680.6884281210218433
 20
-78.9441373710133121
 30
0.0
 11
3680.6884281210218433
 21
-560.9441373710133121
 31
0.0
  0
SOLID
  5
1030
  8
0
 62
     0
 10
3678.1884281210218433
 20
-78.9441373710133121
 30
0.0
 11
3683.1884281210218433
 21
-78.9441373710133121
 31
0.0
 12
3680.6884281210218433
 22
-63.9441373710133192
 32
0.0
 13
3680.6884281210218433
 23
-63.9441373710133192
 33
0.0
  0
SOLID
  5
1031
  8
0
 62
     0
 10
3678.1884281210218433
 20
-560.9441373710133121
 30
0.0
 11
3683.1884281210218433
 21
-560.9441373710133121
 31
0.0
 12
3680.6884281210218433
 22
-575.9441373710131984
 32
0.0
 13
3680.6884281210218433
 23
-575.9441373710131984
 33
0.0
  0
INSERT
  5
1032
  8
0
  2
*U278
 10
0.0
 20
0.0
 30
0.0
  0
POINT
  5
1033
  8
DEFPOINTS
 62
     0
 10
3714.7192520533758398
 20
-63.9441373710133192
 30
0.0
  0
POINT
  5
1034
  8
DEFPOINTS
 62
     0
 10
3714.7192520533740208
 20
-575.9441373710131984
 30
0.0
  0
POINT
  5
1035
  8
DEFPOINTS
 62
     0
 10
3680.6884281210218433
 20
-575.9441373710131984
 30
0.0
  0
ENDBLK
  5
1037
  8
0
  0
BLOCK
  8
0
  2
*U278
 70
     1
 10
0.0
 20
0.0
 30
0.0
  3
*U278
  1

  0
TEXT
  5
10C5
  8
0
 62
     0
 10
3670.6884281210218433
 20
-337.4441373710126868
 30
0.0
 40
15.0
  1
512
 50
90.0
  0
ENDBLK
  5
10C7
  8
0
  0
BLOCK
  8
0
  2
*D279
 70
     1
 10
0.0
 20
0.0
 30
0.0
  3
*D279
  1

  0
LINE
  5
104D
  8
0
 62
     0
 10
5750.9204946845184168
 20
27.1612522538107513
 30
0.0
 11
6539.9204946845202358
 21
27.1612522538107513
 31
0.0
  0
SOLID
  5
104E
  8
0
 62
     0
 10
5750.9204946845184168
 20
29.6612522538107513
 30
0.0
 11
5750.9204946845184168
 21
24.6612522538107513
 31
0.0
 12
5735.9204946845165978
 22
27.1612522538107513
 32
0.0
 13
5735.9204946845165978
 23
27.1612522538107513
 33
0.0
  0
SOLID
  5
104F
  8
0
 62
     0
 10
6539.9204946845202358
 20
29.6612522538107513
 30
0.0
 11
6539.9204946845202358
 21
24.6612522538107513
 31
0.0
 12
6554.9204946845202358
 22
27.1612522538107513
 32
0.0
 13
6554.9204946845202358
 23
27.1612522538107513
 33
0.0
  0
INSERT
  5
1050
  8
0
  2
*U280
 10
0.0
 20
0.0
 30
0.0
  0
POINT
  5
1051
  8
DEFPOINTS
 62
     0
 10
5735.9204946845165978
 20
-58.542235838927823
 30
0.0
  0
POINT
  5
1052
  8
DEFPOINTS
 62
     0
 10
6554.9204946845202358
 20
-58.542235838927823
 30
0.0
  0
POINT
  5
1053
  8
DEFPOINTS
 62
     0
 10
6554.9204946845202358
 20
27.1612522538107513
 30
0.0
  0
ENDBLK
  5
1055
  8
0
  0
BLOCK
  8
0
  2
*U280
 70
     1
 10
0.0
 20
0.0
 30
0.0
  3
*U280
  1

  0
TEXT
  5
10C9
  8
0
 62
     0
 10
6127.9204946845156883
 20
37.1612522538107513
 30
0.0
 40
15.0
  1
819
  0
ENDBLK
  5
10CB
  8
0
  0
BLOCK
  8
0
  2
*D281
 70
     1
 10
0.0
 20
0.0
 30
0.0
  3
*D281
  1

  0
LINE
  5
1057
  8
0
 62
     0
 10
5752.4204946845184168
 20
-23.0357240101880087
 30
0.0
 11
6538.4204946845202358
 21
-23.0357240101880087
 31
0.0
  0
SOLID
  5
1058
  8
0
 62
     0
 10
5752.4204946845184168
 20
-20.5357240101880087
 30
0.0
 11
5752.4204946845184168
 21
-25.5357240101880087
 31
0.0
 12
5737.4204946845165978
 22
-23.0357240101880087
 32
0.0
 13
5737.4204946845165978
 23
-23.0357240101880087
 33
0.0
  0
SOLID
  5
1059
  8
0
 62
     0
 10
6538.4204946845202358
 20
-20.5357240101880087
 30
0.0
 11
6538.4204946845202358
 21
-25.5357240101880087
 31
0.0
 12
6553.4204946845202358
 22
-23.0357240101880087
 32
0.0
 13
6553.4204946845202358
 23
-23.0357240101880087
 33
0.0
  0
INSERT
  5
105A
  8
0
  2
*U282
 10
0.0
 20
0.0
 30
0.0
  0
POINT
  5
105B
  8
DEFPOINTS
 62
     0
 10
5737.4204946845165978
 20
-58.542235838927823
 30
0.0
  0
POINT
  5
105C
  8
DEFPOINTS
 62
     0
 10
6553.4204946845202358
 20
-58.542235838927823
 30
0.0
  0
POINT
  5
105D
  8
DEFPOINTS
 62
     0
 10
6553.4204946845202358
 20
-23.0357240101880087
 30
0.0
  0
ENDBLK
  5
105F
  8
0
  0
BLOCK
  8
0
  2
*U282
 70
     1
 10
0.0
 20
0.0
 30
0.0
  3
*U282
  1

  0
TEXT
  5
10CD
  8
0
 62
     0
 10
6127.9204946845156883
 20
-13.0357240101880105
 30
0.0
 40
15.0
  1
816
  0
ENDBLK
  5
10CF
  8
0
  0
BLOCK
  8
0
  2
*D283
 70
     1
 10
0.0
 20
0.0
 30
0.0
  3
*D283
  1

  0
LINE
  5
1061
  8
0
 62
     0
 10
5652.0277222319728025
 20
-60.5422358389277804
 30
0.0
 11
5652.0277222319728025
 21
-545.5422358389275814
 31
0.0
  0
SOLID
  5
1062
  8
0
 62
     0
 10
5649.5277222319709836
 20
-60.5422358389277804
 30
0.0
 11
5654.5277222319709836
 21
-60.5422358389277804
 31
0.0
 12
5652.0277222319728025
 22
-45.5422358389277733
 32
0.0
 13
5652.0277222319728025
 23
-45.5422358389277733
 33
0.0
  0
SOLID
  5
1063
  8
0
 62
     0
 10
5649.5277222319709836
 20
-545.5422358389275814
 30
0.0
 11
5654.5277222319709836
 21
-545.5422358389275814
 31
0.0
 12
5652.0277222319728025
 22
-560.5422358389278088
 32
0.0
 13
5652.0277222319728025
 23
-560.5422358389278088
 33
0.0
  0
INSERT
  5
1064
  8
0
  2
*U284
 10
0.0
 20
0.0
 30
0.0
  0
POINT
  5
1065
  8
DEFPOINTS
 62
     0
 10
5748.9204946845193263
 20
-45.5422358389277804
 30
0.0
  0
POINT
  5
1066
  8
DEFPOINTS
 62
     0
 10
5748.9204946845193263
 20
-560.5422358389278088
 30
0.0
  0
POINT
  5
1067
  8
DEFPOINTS
 62
     0
 10
5652.0277222319728025
 20
-560.5422358389278088
 30
0.0
  0
ENDBLK
  5
1069
  8
0
  0
BLOCK
  8
0
  2
*U284
 70
     1
 10
0.0
 20
0.0
 30
0.0
  3
*U284
  1

  0
TEXT
  5
10D1
  8
0
 62
     0
 10
5642.0277222319709836
 20
-320.5422358389268993
 30
0.0
 40
15.0
  1
515
 50
90.0
  0
ENDBLK
  5
10D3
  8
0
  0
BLOCK
  8
0
  2
*D285
 70
     1
 10
0.0
 20
0.0
 30
0.0
  3
*D285
  1

  0
LINE
  5
106B
  8
0
 62
     0
 10
5698.0541105024722128
 20
-62.0422358389278017
 30
0.0
 11
5698.0541105024722128
 21
-544.0422358389276951
 31
0.0
  0
SOLID
  5
106C
  8
0
 62
     0
 10
5695.5541105024722128
 20
-62.0422358389278017
 30
0.0
 11
5700.5541105024731223
 21
-62.0422358389278017
 31
0.0
 12
5698.0541105024722128
 22
-47.0422358389277875
 32
0.0
 13
5698.0541105024722128
 23
-47.0422358389277875
 33
0.0
  0
SOLID
  5
106D
  8
0
 62
     0
 10
5695.5541105024722128
 20
-544.0422358389276951
 30
0.0
 11
5700.5541105024731223
 21
-544.0422358389276951
 31
0.0
 12
5698.0541105024722128
 22
-559.0422358389273541
 32
0.0
 13
5698.0541105024722128
 23
-559.0422358389273541
 33
0.0
  0
INSERT
  5
106E
  8
0
  2
*U286
 10
0.0
 20
0.0
 30
0.0
  0
POINT
  5
106F
  8
DEFPOINTS
 62
     0
 10
5748.9204946845193263
 20
-47.0422358389278088
 30
0.0
  0
POINT
  5
1070
  8
DEFPOINTS
 62
     0
 10
5748.9204946845193263
 20
-559.0422358389273541
 30
0.0
  0
POINT
  5
1071
  8
DEFPOINTS
 62
     0
 10
5698.0541105024722128
 20
-559.0422358389273541
 30
0.0
  0
ENDBLK
  5
1073
  8
0
  0
BLOCK
  8
0
  2
*U286
 70
     1
 10
0.0
 20
0.0
 30
0.0
  3
*U286
  1

  0
TEXT
  5
10D5
  8
0
 62
     0
 10
5688.0541105024740318
 20
-320.5422358389267856
 30
0.0
 40
15.0
  1
512
 50
90.0
  0
ENDBLK
  5
10D7
  8
0
  0
BLOCK
  8
0
  2
*U287
 70
     1
 10
0.0
 20
0.0
 30
0.0
  3
*U287
  1

  0
TEXT
  5
13CB
  8
0
 62
     1
 10
19.7500064918749487
 20
-0.0000059781273254
 30
0.0
 40
15.0
  1
13
 50
89.9999999999999858
  0
TEXT
  5
13CC
  8
0
 62
     1
 10
10.5000064918749594
 20
27.4999940218726806
 30
0.0
 40
10.5
  1
3
 50
89.9999999999999858
  0
LINE
  5
13CD
  8
0
 62
     1
 10
12.2500064918749594
 20
27.4999940218726806
 30
0.0
 11
12.2500064918749594
 21
34.4999940218726806
 31
0.0
  0
TEXT
  5
13CE
  8
0
 62
     1
 10
24.5000064918749594
 20
27.4999940218726699
 30
0.0
 40
10.5
  1
8
 50
89.9999999999999858
  0
TEXT
  5
13CF
  8
0
 62
     1
 10
19.7522564918749595
 20
38.8749940218726806
 30
0.0
 40
15.0045000000000002
  1
"
 50
89.9999999999999858
  0
ENDBLK
  5
13D1
  8
0
  0
BLOCK
  8
0
  2
*U288
 70
     1
 10
0.0
 20
0.0
 30
0.0
  3
*U288
  1

  0
TEXT
  5
13D3
  8
0
 62
     1
 10
19.7499969635591697
 20
0.0000030262103731
 30
0.0
 40
15.0
  1
13
 50
89.9999999999999858
  0
TEXT
  5
13D4
  8
0
 62
     1
 10
10.4999969635591697
 20
27.5000030262103792
 30
0.0
 40
10.5
  1
3
 50
89.9999999999999858
  0
LINE
  5
13D5
  8
0
 62
     1
 10
12.2499969635591697
 20
27.5000030262103792
 30
0.0
 11
12.2499969635591803
 21
34.5000030262103721
 31
0.0
  0
TEXT
  5
13D6
  8
0
 62
     1
 10
24.4999969635591803
 20
27.5000030262103792
 30
0.0
 40
10.5
  1
8
 50
89.9999999999999858
  0
TEXT
  5
13D7
  8
0
 62
     1
 10
19.7522469635591804
 20
38.8750030262103721
 30
0.0
 40
15.0045000000000002
  1
"
 50
89.9999999999999858
  0
ENDBLK
  5
13D9
  8
0
  0
BLOCK
  8
0
  2
*U289
 70
     1
 10
0.0
 20
0.0
 30
0.0
  3
*U289
  1

  0
TEXT
  5
13DB
  8
0
 62
     1
 10
3659.8071300722649539
 20
1190.4892492335980023
 30
0.0
 40
15.0
  1
20
 50
89.9999999999999858
  0
TEXT
  5
13DC
  8
0
 62
     1
 10
3650.5571300722649539
 20
1222.4892492335980023
 30
0.0
 40
10.5
  1
1
 50
89.9999999999999858
  0
LINE
  5
13DD
  8
0
 62
     1
 10
3652.3071300722649539
 20
1220.7392492335980023
 30
0.0
 11
3652.3071300722649539
 21
1227.7392492335980023
 31
0.0
  0
TEXT
  5
13DE
  8
0
 62
     1
 10
3664.5571300722649539
 20
1220.7392492335980023
 30
0.0
 40
10.5
  1
4
 50
89.9999999999999858
  0
TEXT
  5
13DF
  8
0
 62
     1
 10
3659.8093800722649576
 20
1232.1142492335980023
 30
0.0
 40
15.0045000000000002
  1
"
 50
89.9999999999999858
  0
ENDBLK
  5
13E1
  8
0
  0
BLOCK
  8
0
  2
*U290
 70
     1
 10
0.0
 20
0.0
 30
0.0
  3
*U290
  1

  0
TEXT
  5
13E3
  8
0
 62
     1
 10
0.0000007561811702
 20
4.7500030262099244
 30
0.0
 40
15.0
  1
13
  0
TEXT
  5
13E4
  8
0
 62
     1
 10
27.5000007561811799
 20
14.0000030262099102
 30
0.0
 40
10.5
  1
3
  0
LINE
  5
13E5
  8
0
 62
     1
 10
27.5000007561811799
 20
12.2500030262099102
 30
0.0
 11
34.5000007561811799
 21
12.2500030262099102
 31
0.0
  0
TEXT
  5
13E6
  8
0
 62
     1
 10
27.5000007561811692
 20
0.0000030262099102
 30
0.0
 40
10.5
  1
8
  0
TEXT
  5
13E7
  8
0
 62
     1
 10
38.8750007561811728
 20
4.747753026209903
 30
0.0
 40
15.0045000000000002
  1
"
  0
ENDBLK
  5
13E9
  8
0
  0
BLOCK
  8
0
  2
*U291
 70
     1
 10
0.0
 20
0.0
 30
0.0
  3
*U291
  1

  0
TEXT
  5
13EB
  8
0
 62
     1
 10
4154.5920136101767639
 20
1466.6810260364140959
 30
0.0
 40
15.0
  1
32
  0
TEXT
  5
13EC
  8
0
 62
     1
 10
4189.3420136101749449
 20
1475.9310260364140959
 30
0.0
 40
10.5
  1
1
  0
LINE
  5
13ED
  8
0
 62
     1
 10
4187.5920136101767639
 20
1474.181026036412959
 30
0.0
 11
4194.5920136101767639
 21
1474.181026036412959
 31
0.0
  0
TEXT
  5
13EE
  8
0
 62
     1
 10
4187.5920136101767639
 20
1461.931026036412959
 30
0.0
 40
10.5
  1
8
  0
TEXT
  5
13EF
  8
0
 62
     1
 10
4198.9670136101767639
 20
1466.6787760364129554
 30
0.0
 40
15.0045000000000002
  1
"
  0
ENDBLK
  5
13F1
  8
0
  0
BLOCK
  8
0
  2
*U292
 70
     1
 10
0.0
 20
0.0
 30
0.0
  3
*U292
  1

  0
TEXT
  5
13F3
  8
0
 62
     1
 10
19.7499969635591697
 20
0.0000030262103731
 30
0.0
 40
15.0
  1
20
 50
89.9999999999999858
  0
TEXT
  5
13F4
  8
0
 62
     1
 10
10.4999969635591803
 20
32.0000030262103721
 30
0.0
 40
10.5
  1
1
 50
89.9999999999999858
  0
LINE
  5
13F5
  8
0
 62
     1
 10
12.2499969635591803
 20
30.2500030262103792
 30
0.0
 11
12.2499969635591803
 21
37.2500030262103721
 31
0.0
  0
TEXT
  5
13F6
  8
0
 62
     1
 10
24.4999969635591803
 20
30.2500030262103685
 30
0.0
 40
10.5
  1
4
 50
89.9999999999999858
  0
TEXT
  5
13F7
  8
0
 62
     1
 10
19.7522469635591804
 20
41.6250030262103579
 30
0.0
 40
15.0045000000000002
  1
"
 50
89.9999999999999858
  0
ENDBLK
  5
13F9
  8
0
  0
BLOCK
  8
0
  2
*U293
 70
     1
 10
0.0
 20
0.0
 30
0.0
  3
*U293
  1

  0
TEXT
  5
13FB
  8
0
 62
     1
 10
514.5348805014709797
 20
276.191779829026018
 30
0.0
 40
15.0
  1
32
  0
TEXT
  5
13FC
  8
0
 62
     1
 10
549.2848805014707523
 20
285.441779829026018
 30
0.0
 40
10.5
  1
1
  0
LINE
  5
13FD
  8
0
 62
     1
 10
547.5348805014709797
 20
283.691779829026018
 30
0.0
 11
554.5348805014707523
 21
283.691779829026018
 31
0.0
  0
TEXT
  5
13FE
  8
0
 62
     1
 10
547.5348805014709797
 20
271.441779829026018
 30
0.0
 40
10.5
  1
8
  0
TEXT
  5
13FF
  8
0
 62
     1
 10
558.909880501470866
 20
276.1895298290260143
 30
0.0
 40
15.0045000000000002
  1
"
  0
ENDBLK
  5
1401
  8
0
  0
BLOCK
  8
0
  2
*U294
 70
     1
 10
0.0
 20
0.0
 30
0.0
  3
*U294
  1

  0
TEXT
  5
1403
  8
0
 62
     1
 10
19.7499969635591697
 20
0.0000030262103731
 30
0.0
 40
15.0
  1
20
 50
89.9999999999999858
  0
TEXT
  5
1404
  8
0
 62
     1
 10
10.4999969635591803
 20
32.0000030262103721
 30
0.0
 40
10.5
  1
1
 50
89.9999999999999858
  0
LINE
  5
1405
  8
0
 62
     1
 10
12.2499969635591803
 20
30.2500030262103792
 30
0.0
 11
12.2499969635591803
 21
37.2500030262103721
 31
0.0
  0
TEXT
  5
1406
  8
0
 62
     1
 10
24.4999969635591803
 20
30.2500030262103685
 30
0.0
 40
10.5
  1
4
 50
89.9999999999999858
  0
TEXT
  5
1407
  8
0
 62
     1
 10
19.7522469635591804
 20
41.6250030262103579
 30
0.0
 40
15.0045000000000002
  1
"
 50
89.9999999999999858
  0
ENDBLK
  5
1409
  8
0
  0
BLOCK
  8
0
  2
*U295
 70
     1
 10
0.0
 20
0.0
 30
0.0
  3
*U295
  1

  0
TEXT
  5
140B
  8
0
 62
     1
 10
0.0000007561811702
 20
4.7500030262081054
 30
0.0
 40
15.0
  1
32
  0
TEXT
  5
140C
  8
0
 62
     1
 10
34.7500007561811799
 20
14.0000030262080806
 30
0.0
 40
10.5
  1
1
  0
LINE
  5
140D
  8
0
 62
     1
 10
33.0000007561811728
 20
12.2500030262080895
 30
0.0
 11
40.0000007561811728
 21
12.2500030262080806
 31
0.0
  0
TEXT
  5
140E
  8
0
 62
     1
 10
33.0000007561811728
 20
0.0000030262080895
 30
0.0
 40
10.5
  1
8
  0
TEXT
  5
140F
  8
0
 62
     1
 10
44.3750007561811728
 20
4.747753026208084
 30
0.0
 40
15.0045000000000002
  1
"
  0
ENDBLK
  5
1411
  8
0
  0
BLOCK
  8
0
  2
*U296
 70
     1
 10
0.0
 20
0.0
 30
0.0
  3
*U296
  1

  0
TEXT
  5
1413
  8
0
 62
     1
 10
6122.9088340601938398
 20
1444.8888689570480892
 30
0.0
 40
15.0
  1
26
  0
TEXT
  5
1414
  8
0
 62
     1
 10
6157.6588340601920208
 20
1454.1388689570480892
 30
0.0
 40
10.5
  1
1
  0
LINE
  5
1415
  8
0
 62
     1
 10
6155.9088340601929303
 20
1452.3888689570469523
 30
0.0
 11
6162.9088340601929303
 21
1452.3888689570469523
 31
0.0
  0
TEXT
  5
1416
  8
0
 62
     1
 10
6155.9088340601929303
 20
1440.1388689570469523
 30
0.0
 40
10.5
  1
8
  0
TEXT
  5
1417
  8
0
 62
     1
 10
6167.2838340601920208
 20
1444.8866189570469487
 30
0.0
 40
15.0045000000000002
  1
"
  0
ENDBLK
  5
1419
  8
0
  0
BLOCK
  8
0
  2
*U297
 70
     1
 10
0.0
 20
0.0
 30
0.0
  3
*U297
  1

  0
TEXT
  5
141B
  8
0
 62
     1
 10
19.7499969635591697
 20
0.0000030262103731
 30
0.0
 40
15.0
  1
20
 50
89.9999999999999858
  0
TEXT
  5
141C
  8
0
 62
     1
 10
10.4999969635591803
 20
32.0000030262103721
 30
0.0
 40
10.5
  1
1
 50
89.9999999999999858
  0
LINE
  5
141D
  8
0
 62
     1
 10
12.2499969635591803
 20
30.2500030262103792
 30
0.0
 11
12.2499969635591803
 21
37.2500030262103721
 31
0.0
  0
TEXT
  5
141E
  8
0
 62
     1
 10
24.4999969635591803
 20
30.2500030262103685
 30
0.0
 40
10.5
  1
4
 50
89.9999999999999858
  0
TEXT
  5
141F
  8
0
 62
     1
 10
19.7522469635591804
 20
41.6250030262103579
 30
0.0
 40
15.0045000000000002
  1
"
 50
89.9999999999999858
  0
ENDBLK
  5
1421
  8
0
  0
BLOCK
  8
0
  2
*U298
 70
     1
 10
0.0
 20
0.0
 30
0.0
  3
*U298
  1

  0
TEXT
  5
1423
  8
0
 62
     1
 10
5687.2082168135757456
 20
1167.458878490951065
 30
0.0
 40
15.0
  1
20
 50
89.9999999999999858
  0
TEXT
  5
1424
  8
0
 62
     1
 10
5677.9582168135775646
 20
1199.458878490951065
 30
0.0
 40
10.5
  1
1
 50
89.9999999999999858
  0
LINE
  5
1425
  8
0
 62
     1
 10
5679.7082168135757456
 20
1197.708878490951065
 30
0.0
 11
5679.7082168135757456
 21
1204.708878490951065
 31
0.0
  0
TEXT
  5
1426
  8
0
 62
     1
 10
5691.9582168135775646
 20
1197.708878490951065
 30
0.0
 40
10.5
  1
4
 50
89.9999999999999858
  0
TEXT
  5
1427
  8
0
 62
     1
 10
5687.2104668135771135
 20
1209.083878490951065
 30
0.0
 40
15.0045000000000002
  1
"
 50
89.9999999999999858
  0
ENDBLK
  5
1429
  8
0
  0
BLOCK
  8
0
  2
*U299
 70
     1
 10
0.0
 20
0.0
 30
0.0
  3
*U299
  1

  0
TEXT
  5
142B
  8
0
 62
     1
 10
19.7499969635591697
 20
0.0000030262103731
 30
0.0
 40
15.0
  1
20
 50
89.9999999999999858
  0
TEXT
  5
142C
  8
0
 62
     1
 10
10.4999969635591803
 20
32.0000030262103721
 30
0.0
 40
10.5
  1
1
 50
89.9999999999999858
  0
LINE
  5
142D
  8
0
 62
     1
 10
12.2499969635591803
 20
30.2500030262103792
 30
0.0
 11
12.2499969635591803
 21
37.2500030262103721
 31
0.0
  0
TEXT
  5
142E
  8
0
 62
     1
 10
24.4999969635591803
 20
30.2500030262103685
 30
0.0
 40
10.5
  1
4
 50
89.9999999999999858
  0
TEXT
  5
142F
  8
0
 62
     1
 10
19.7522469635591804
 20
41.6250030262103579
 30
0.0
 40
15.0045000000000002
  1
"
 50
89.9999999999999858
  0
ENDBLK
  5
1431
  8
0
  0
BLOCK
  8
0
  2
*U300
 70
     1
 10
0.0
 20
0.0
 30
0.0
  3
*U300
  1

  0
TEXT
  5
1433
  8
0
 62
     1
 10
5676.9683931830513757
 20
-270.2633468291501231
 30
0.0
 40
15.0
  1
20
 50
89.9999999999999858
  0
TEXT
  5
1434
  8
0
 62
     1
 10
5667.7183931830513757
 20
-238.2633468291500947
 30
0.0
 40
10.5
  1
1
 50
89.9999999999999858
  0
LINE
  5
1435
  8
0
 62
     1
 10
5669.4683931830495567
 20
-240.0133468291500947
 30
0.0
 11
5669.4683931830495567
 21
-233.0133468291500947
 31
0.0
  0
TEXT
  5
1436
  8
0
 62
     1
 10
5681.7183931830495567
 20
-240.0133468291500947
 30
0.0
 40
10.5
  1
8
 50
89.9999999999999858
  0
TEXT
  5
1437
  8
0
 62
     1
 10
5676.9706431830509246
 20
-228.6383468291500947
 30
0.0
 40
15.0045000000000002
  1
"
 50
89.9999999999999858
  0
ENDBLK
  5
1439
  8
0
  0
BLOCK
  8
0
  2
*U301
 70
     1
 10
0.0
 20
0.0
 30
0.0
  3
*U301
  1

  0
TEXT
  5
143B
  8
0
 62
     1
 10
0.0000007561811702
 20
4.7500030262081054
 30
0.0
 40
15.0
  1
26
  0
TEXT
  5
143C
  8
0
 62
     1
 10
34.7500007561811799
 20
14.0000030262080806
 30
0.0
 40
10.5
  1
1
  0
LINE
  5
143D
  8
0
 62
     1
 10
33.0000007561811728
 20
12.2500030262080895
 30
0.0
 11
40.0000007561811728
 21
12.2500030262080806
 31
0.0
  0
TEXT
  5
143E
  8
0
 62
     1
 10
33.0000007561811728
 20
0.0000030262080895
 30
0.0
 40
10.5
  1
8
  0
TEXT
  5
143F
  8
0
 62
     1
 10
44.3750007561811728
 20
4.747753026208084
 30
0.0
 40
15.0045000000000002
  1
"
  0
ENDBLK
  5
1441
  8
0
  0
BLOCK
  8
0
  2
*U302
 70
     1
 10
0.0
 20
0.0
 30
0.0
  3
*U302
  1

  0
TEXT
  5
1443
  8
0
 62
     1
 10
6183.3794131176045994
 20
7.0304079884945132
 30
0.0
 40
15.0
  1
32
  0
TEXT
  5
1444
  8
0
 62
     1
 10
6218.1294131176045994
 20
16.280407988494499
 30
0.0
 40
10.5
  1
1
  0
LINE
  5
1445
  8
0
 62
     1
 10
6216.3794131176036899
 20
14.5304079884945008
 30
0.0
 11
6223.3794131176045994
 21
14.5304079884945008
 31
0.0
  0
TEXT
  5
1446
  8
0
 62
     1
 10
6216.3794131176036899
 20
2.2804079884945021
 30
0.0
 40
10.5
  1
8
  0
TEXT
  5
1447
  8
0
 62
     1
 10
6227.7544131176045994
 20
7.0281579884944962
 30
0.0
 40
15.0045000000000002
  1
"
  0
ENDBLK
  5
1449
  8
0
  0
BLOCK
  8
0
  2
*U303
 70
     1
 10
0.0
 20
0.0
 30
0.0
  3
*U303
  1

  0
TEXT
  5
144B
  8
0
 62
     1
 10
19.7499969635591697
 20
0.0000030262103731
 30
0.0
 40
15.0
  1
20
 50
89.9999999999999858
  0
TEXT
  5
144C
  8
0
 62
     1
 10
10.4999969635591803
 20
32.0000030262103721
 30
0.0
 40
10.5
  1
1
 50
89.9999999999999858
  0
LINE
  5
144D
  8
0
 62
     1
 10
12.2499969635591803
 20
30.2500030262103792
 30
0.0
 11
12.2499969635591803
 21
37.2500030262103721
 31
0.0
  0
TEXT
  5
144E
  8
0
 62
     1
 10
24.4999969635591803
 20
30.2500030262103685
 30
0.0
 40
10.5
  1
8
 50
89.9999999999999858
  0
TEXT
  5
144F
  8
0
 62
     1
 10
19.7522469635591804
 20
41.6250030262103579
 30
0.0
 40
15.0045000000000002
  1
"
 50
89.9999999999999858
  0
ENDBLK
  5
1451
  8
0
  0
BLOCK
  8
0
  2
*U304
 70
     1
 10
0.0
 20
0.0
 30
0.0
  3
*U304
  1

  0
TEXT
  5
1453
  8
0
 62
     1
 10
526.1610168981133029
 20
277.293757843855019
 30
0.0
 40
15.0
  1
32
  0
TEXT
  5
1454
  8
0
 62
     1
 10
560.9110168981133029
 20
286.5437578438550759
 30
0.0
 40
10.5
  1
1
  0
LINE
  5
1455
  8
0
 62
     1
 10
559.1610168981133029
 20
284.7937578438550759
 30
0.0
 11
566.1610168981133029
 21
284.7937578438550759
 31
0.0
  0
TEXT
  5
1456
  8
0
 62
     1
 10
559.1610168981133029
 20
272.543757843855019
 30
0.0
 40
10.5
  1
8
  0
TEXT
  5
1457
  8
0
 62
     1
 10
570.5360168981131892
 20
277.2915078438550154
 30
0.0
 40
15.0045000000000002
  1
"
  0
ENDBLK
  5
1459
  8
0
  0
BLOCK
  8
0
  2
*U305
 70
     1
 10
0.0
 20
0.0
 30
0.0
  3
*U305
  1

  0
TEXT
  5
145B
  8
0
 62
     1
 10
19.7499969635591697
 20
0.0000030262103731
 30
0.0
 40
15.0
  1
20
 50
89.9999999999999858
  0
TEXT
  5
145C
  8
0
 62
     1
 10
10.4999969635591803
 20
32.0000030262103721
 30
0.0
 40
10.5
  1
1
 50
89.9999999999999858
  0
LINE
  5
145D
  8
0
 62
     1
 10
12.2499969635591803
 20
30.2500030262103792
 30
0.0
 11
12.2499969635591803
 21
37.2500030262103721
 31
0.0
  0
TEXT
  5
145E
  8
0
 62
     1
 10
24.4999969635591803
 20
30.2500030262103685
 30
0.0
 40
10.5
  1
8
 50
89.9999999999999858
  0
TEXT
  5
145F
  8
0
 62
     1
 10
19.7522469635591804
 20
41.6250030262103579
 30
0.0
 40
15.0045000000000002
  1
"
 50
89.9999999999999858
  0
ENDBLK
  5
1461
  8
0
  0
BLOCK
  8
0
  2
*U306
 70
     1
 10
0.0
 20
0.0
 30
0.0
  3
*U306
  1

  0
TEXT
  5
1463
  8
0
 62
     1
 10
526.1610168981133029
 20
277.293757843855019
 30
0.0
 40
15.0
  1
32
  0
TEXT
  5
1464
  8
0
 62
     1
 10
560.9110168981133029
 20
286.5437578438550759
 30
0.0
 40
10.5
  1
1
  0
LINE
  5
1465
  8
0
 62
     1
 10
559.1610168981133029
 20
284.7937578438550759
 30
0.0
 11
566.1610168981133029
 21
284.7937578438550759
 31
0.0
  0
TEXT
  5
1466
  8
0
 62
     1
 10
559.1610168981133029
 20
272.543757843855019
 30
0.0
 40
10.5
  1
8
  0
TEXT
  5
1467
  8
0
 62
     1
 10
570.5360168981131892
 20
277.2915078438550154
 30
0.0
 40
15.0045000000000002
  1
"
  0
ENDBLK
  5
1469
  8
0
  0
BLOCK
  8
0
  2
*U307
 70
     1
 10
0.0
 20
0.0
 30
0.0
  3
*U307
  1

  0
TEXT
  5
146B
  8
0
 62
     1
 10
3657.0032326078680853
 20
-291.3251889885600008
 30
0.0
 40
15.0
  1
20
 50
89.9999999999999858
  0
TEXT
  5
146C
  8
0
 62
     1
 10
3647.7532326078680853
 20
-259.3251889885601145
 30
0.0
 40
10.5
  1
1
 50
89.9999999999999858
  0
LINE
  5
146D
  8
0
 62
     1
 10
3649.5032326078680853
 20
-261.0751889885601145
 30
0.0
 11
3649.5032326078680853
 21
-254.0751889885600008
 31
0.0
  0
TEXT
  5
146E
  8
0
 62
     1
 10
3661.7532326078680853
 20
-261.0751889885601145
 30
0.0
 40
10.5
  1
8
 50
89.9999999999999858
  0
TEXT
  5
146F
  8
0
 62
     1
 10
3657.005482607868089
 20
-249.700188988560086
 30
0.0
 40
15.0045000000000002
  1
"
 50
89.9999999999999858
  0
ENDBLK
  5
1471
  8
0
  0
BLOCK
  8
0
  2
*U308
 70
     1
 10
0.0
 20
0.0
 30
0.0
  3
*U308
  1

  0
TEXT
  5
1473
  8
0
 62
     1
 10
0.0000007561811702
 20
4.7500030262081054
 30
0.0
 40
15.0
  1
32
  0
TEXT
  5
1474
  8
0
 62
     1
 10
34.7500007561811799
 20
14.0000030262080806
 30
0.0
 40
10.5
  1
1
  0
LINE
  5
1475
  8
0
 62
     1
 10
33.0000007561811728
 20
12.2500030262080895
 30
0.0
 11
40.0000007561811728
 21
12.2500030262080806
 31
0.0
  0
TEXT
  5
1476
  8
0
 62
     1
 10
33.0000007561811728
 20
0.0000030262080895
 30
0.0
 40
10.5
  1
8
  0
TEXT
  5
1477
  8
0
 62
     1
 10
44.3750007561811728
 20
4.747753026208084
 30
0.0
 40
15.0045000000000002
  1
"
  0
ENDBLK
  5
1479
  8
0
  0
BLOCK
  8
0
  2
*U309
 70
     1
 10
0.0
 20
0.0
 30
0.0
  3
*U309
  1

  0
TEXT
  5
147B
  8
0
 62
     1
 10
4194.0526755805612993
 20
-16.3410020922265105
 30
0.0
 40
15.0
  1
36
  0
TEXT
  5
147C
  8
0
 62
     1
 10
4228.8026755805612993
 20
-7.0910020922265362
 30
0.0
 40
10.5
  1
1
  0
LINE
  5
147D
  8
0
 62
     1
 10
4227.0526755805612993
 20
-8.8410020922265335
 30
0.0
 11
4234.0526755805612993
 21
-8.8410020922265389
 31
0.0
  0
TEXT
  5
147E
  8
0
 62
     1
 10
4227.0526755805612993
 20
-21.0910020922265389
 30
0.0
 40
10.5
  1
8
  0
TEXT
  5
147F
  8
0
 62
     1
 10
4238.4276755805612993
 20
-16.343252092226539
 30
0.0
 40
15.0045000000000002
  1
"
  0
ENDBLK
  5
1481
  8
0
  0
BLOCK
  8
0
  2
*D310
 70
     1
 10
0.0
 20
0.0
 30
0.0
  3
*D310
  1

  0
LINE
  5
1735
  8
0
 62
     0
 10
3727.2041321806050291
 20
1434.502289142689051
 30
0.0
 11
4513.2041321806018459
 21
1434.502289142689051
 31
0.0
  0
SOLID
  5
1736
  8
0
 62
     0
 10
3727.2041321806050291
 20
1437.002289142689051
 30
0.0
 11
3727.2041321806050291
 21
1432.002289142689051
 31
0.0
 12
3712.2041321806041196
 22
1434.502289142689051
 32
0.0
 13
3712.2041321806041196
 23
1434.502289142689051
 33
0.0
  0
SOLID
  5
1737
  8
0
 62
     0
 10
4513.2041321806018459
 20
1437.002289142689051
 30
0.0
 11
4513.2041321806018459
 21
1432.002289142689051
 31
0.0
 12
4528.2041321806018459
 22
1434.502289142689051
 32
0.0
 13
4528.2041321806018459
 23
1434.502289142689051
 33
0.0
  0
INSERT
  5
1738
  8
0
  2
*U311
 10
0.0
 20
0.0
 30
0.0
  0
POINT
  5
1739
  8
DEFPOINTS
 62
     0
 10
3712.2041321806041196
 20
1393.634607922692112
 30
0.0
  0
POINT
  5
173A
  8
DEFPOINTS
 62
     0
 10
4528.2041321806018459
 20
1414.6429041755850449
 30
0.0
  0
POINT
  5
173B
  8
DEFPOINTS
 62
     0
 10
4528.2041321806018459
 20
1434.502289142689051
 30
0.0
  0
ENDBLK
  5
173D
  8
0
  0
BLOCK
  8
0
  2
*U311
 70
     1
 10
0.0
 20
0.0
 30
0.0
  3
*U311
  1

  0
TEXT
  5
18B0
  8
0
 62
     0
 10
4102.7041321806027554
 20
1444.502289142689051
 30
0.0
 40
15.0
  1
816
  0
ENDBLK
  5
18B2
  8
0
  0
BLOCK
  8
0
  2
*U312
 70
     1
 10
0.0
 20
0.0
 30
0.0
  3
*U312
  1

  0
TEXT
  5
1748
  8
0
 10
3585.0515191797271655
 20
418.1043395781483127
 30
0.0
 40
17.0
  1
TOPZERO
  0
TEXT
  5
1749
  8
0
 10
3585.0515191797271655
 20
389.771006244815112
 30
0.0
 40
17.0
  1
www.topzero.com
  0
ENDBLK
  5
174A
  8
0
  0
BLOCK
  8
0
  2
*U313
 70
     1
 10
0.0
 20
0.0
 30
0.0
  3
*U313
  1

  0
TEXT
  5
174D
  8
0
 10
4110.4723066083734011
 20
430.688484850157181
 30
0.0
 40
18.0
  1
32''  LARGE SINGLE BOWL
  0
ENDBLK
  5
174E
  8
0
  0
BLOCK
  8
0
  2
*U314
 70
     1
 10
0.0
 20
0.0
 30
0.0
  3
*U314
  1

  0
TEXT
  5
1751
  8
0
 10
3927.6070844178070729
 20
323.1830203019590044
 30
0.0
 40
15.0
  1
Stainless
  0
TEXT
  5
1752
  8
0
 10
3927.6070844178070729
 20
298.1830203019590044
 30
0.0
 40
15.0
  1
steel
  0
ENDBLK
  5
1753
  8
0
  0
BLOCK
  8
0
  2
*U315
 70
     1
 10
0.0
 20
0.0
 30
0.0
  3
*U315
  1

  0
TEXT
  5
1756
  8
0
 10
4333.268356613776632
 20
303.9259093338257003
 30
0.0
 40
21.9959999999999987
  1
TZ M812
  0
ENDBLK
  5
1757
  8
0
  0
BLOCK
  8
0
  2
*U316
 70
     1
 10
0.0
 20
0.0
 30
0.0
  3
*U316
  1

  0
TEXT
  5
175A
  8
0
 10
4804.1530205418903279
 20
307.4876556665789167
 30
0.0
 40
20.0
  1
10/2020
  0
ENDBLK
  5
175B
  8
0
  0
BLOCK
  8
0
  2
*U317
 70
     1
 10
0.0
 20
0.0
 30
0.0
  3
*U317
  1

  0
TEXT
  5
175E
  8
0
 10
4959.194004079799015
 20
1439.5242400948609429
 30
0.0
 40
20.0
  1
mm
  0
TEXT
  5
175F
  8
0
 10
4932.5273374131329547
 20
1406.1909067615279127
 30
0.0
 40
20.0
  1
[
  0
TEXT
  5
1760
  8
0
 10
4945.8606707464659848
 20
1406.1909067615279127
 30
0.0
 40
20.0
  1
inch
  0
TEXT
  5
1761
  8
0
 10
5012.5273374131329547
 20
1406.1909067615279127
 30
0.0
 40
20.0
  1
]
  0
ENDBLK
  5
1762
  8
0
  0
BLOCK
  8
0
  2
*U318
 70
     1
 10
0.0
 20
0.0
 30
0.0
  3
*U318
  1

  0
TEXT
  5
1765
  8
0
 10
4695.6034719855515505
 20
485.9422017028995811
 30
0.0
 40
12.0
  1
This template file is meant to be a guideline
  0
TEXT
  5
1766
  8
0
 10
4695.6034719855515505
 20
465.9422017028995811
 30
0.0
 40
12.0
  1
and must be compared with the actual product
  0
TEXT
  5
1767
  8
0
 10
4695.6034719855515505
 20
445.9422017028995811
 30
0.0
 40
12.0
  1
which should always be present to ensure a
  0
TEXT
  5
1768
  8
0
 10
4695.6034719855515505
 20
425.9422017028995811
 30
0.0
 40
12.0
  1
perfect cut.Testing on a scrap piece before
  0
TEXT
  5
1769
  8
0
 10
4695.6034719855515505
 20
405.9422017028995811
 30
0.0
 40
12.0
  1
the final cut is always recommended.
  0
TEXT
  5
176A
  8
0
 10
4695.6034719855515505
 20
385.9422017028995811
 30
0.0
 40
12.0
  1
UKINOX IS NOT RESPONSIBLE FOR ANY IMPROPERLY
  0
TEXT
  5
176B
  8
0
 10
4695.6034719855515505
 20
365.9422017028996947
 30
0.0
 40
12.0
  1
CUT COUNTERTOP OR AN IMPROPER INSTALLATION.
  0
ENDBLK
  5
176C
  8
0
  0
BLOCK
  8
0
  2
*U319
 70
     1
 10
0.0
 20
0.0
 30
0.0
  3
*U319
  1

  0
TEXT
  5
176F
  8
0
 62
     1
 10
4602.6803545822785964
 20
1218.0342264896119104
 30
0.0
 40
15.0
  1
Topzero zero reveal
  0
ENDBLK
  5
1770
  8
0
  0
BLOCK
  8
0
  2
*D320
 70
     1
 10
0.0
 20
0.0
 30
0.0
  3
*D320
  1

  0
LINE
  5
1773
  8
0
 62
     0
 10
3681.8782297179768648
 20
1390.134607922692112
 30
0.0
 11
3681.8782297179768648
 21
906.134607922692453
 31
0.0
  0
SOLID
  5
1774
  8
0
 62
     0
 10
3679.3782297179777743
 20
1390.134607922692112
 30
0.0
 11
3684.3782297179768648
 21
1390.134607922692112
 31
0.0
 12
3681.8782297179768648
 22
1405.134607922692112
 32
0.0
 13
3681.8782297179768648
 23
1405.134607922692112
 33
0.0
  0
SOLID
  5
1775
  8
0
 62
     0
 10
3679.3782297179777743
 20
906.134607922692453
 30
0.0
 11
3684.3782297179768648
 21
906.134607922692453
 31
0.0
 12
3681.8782297179768648
 22
891.134607922692453
 32
0.0
 13
3681.8782297179768648
 23
891.134607922692453
 33
0.0
  0
INSERT
  5
1776
  8
0
  2
*U321
 10
0.0
 20
0.0
 30
0.0
  0
POINT
  5
1777
  8
DEFPOINTS
 62
     0
 10
3723.7041321806059386
 20
1405.134607922692112
 30
0.0
  0
POINT
  5
1778
  8
DEFPOINTS
 62
     0
 10
3723.7041321806059386
 20
891.134607922692453
 30
0.0
  0
POINT
  5
1779
  8
DEFPOINTS
 62
     0
 10
3681.8782297179768648
 20
891.134607922692453
 30
0.0
  0
ENDBLK
  5
177A
  8
0
  0
BLOCK
  8
0
  2
*U321
 70
     1
 10
0.0
 20
0.0
 30
0.0
  3
*U321
  1

  0
TEXT
  5
177D
  8
0
 62
     0
 10
3671.8782297179768648
 20
1130.6346079226930215
 30
0.0
 40
15.0
  1
514
 50
90.0
  0
ENDBLK
  5
177E
  8
0
  0
BLOCK
  8
0
  2
*U322
 70
     1
 10
0.0
 20
0.0
 30
0.0
  3
*U322
  1

  0
TEXT
  5
1781
  8
0
 62
     1
 10
3659.8071300722649539
 20
1190.4892492335980023
 30
0.0
 40
15.0
  1
20
 50
89.9999999999999858
  0
TEXT
  5
1782
  8
0
 62
     1
 10
3650.5571300722649539
 20
1222.4892492335980023
 30
0.0
 40
10.5
  1
1
 50
89.9999999999999858
  0
LINE
  5
1783
  8
0
 62
     1
 10
3652.3071300722649539
 20
1220.7392492335980023
 30
0.0
 11
3652.3071300722649539
 21
1227.7392492335980023
 31
0.0
  0
TEXT
  5
1784
  8
0
 62
     1
 10
3664.5571300722649539
 20
1220.7392492335980023
 30
0.0
 40
10.5
  1
4
 50
89.9999999999999858
  0
TEXT
  5
1785
  8
0
 62
     1
 10
3659.8093800722649576
 20
1232.1142492335980023
 30
0.0
 40
15.0045000000000002
  1
"
 50
89.9999999999999858
  0
ENDBLK
  5
1786
  8
0
  0
BLOCK
  8
0
  2
*U323
 70
     1
 10
0.0
 20
0.0
 30
0.0
  3
*U323
  1

  0
TEXT
  5
1789
  8
0
 62
     1
 10
4154.5920136101767639
 20
1466.6810260364140959
 30
0.0
 40
15.0
  1
32
  0
TEXT
  5
178A
  8
0
 62
     1
 10
4189.3420136101749449
 20
1475.9310260364140959
 30
0.0
 40
10.5
  1
1
  0
LINE
  5
178B
  8
0
 62
     1
 10
4187.5920136101767639
 20
1474.181026036412959
 30
0.0
 11
4194.5920136101767639
 21
1474.181026036412959
 31
0.0
  0
TEXT
  5
178C
  8
0
 62
     1
 10
4187.5920136101767639
 20
1461.931026036412959
 30
0.0
 40
10.5
  1
8
  0
TEXT
  5
178D
  8
0
 62
     1
 10
4198.9670136101767639
 20
1466.6787760364129554
 30
0.0
 40
15.0045000000000002
  1
"
  0
ENDBLK
  5
178E
  8
0
  0
BLOCK
  8
0
  2
*D324
 70
     1
 10
0.0
 20
0.0
 30
0.0
  3
*D324
  1

  0
LINE
  5
1791
  8
0
 62
     0
 10
3727.2041321806050291
 20
1434.502289142689051
 30
0.0
 11
4513.2041321806018459
 21
1434.502289142689051
 31
0.0
  0
SOLID
  5
1792
  8
0
 62
     0
 10
3727.2041321806050291
 20
1437.002289142689051
 30
0.0
 11
3727.2041321806050291
 21
1432.002289142689051
 31
0.0
 12
3712.2041321806041196
 22
1434.502289142689051
 32
0.0
 13
3712.2041321806041196
 23
1434.502289142689051
 33
0.0
  0
SOLID
  5
1793
  8
0
 62
     0
 10
4513.2041321806018459
 20
1437.002289142689051
 30
0.0
 11
4513.2041321806018459
 21
1432.002289142689051
 31
0.0
 12
4528.2041321806018459
 22
1434.502289142689051
 32
0.0
 13
4528.2041321806018459
 23
1434.502289142689051
 33
0.0
  0
INSERT
  5
1794
  8
0
  2
*U325
 10
0.0
 20
0.0
 30
0.0
  0
POINT
  5
1795
  8
DEFPOINTS
 62
     0
 10
3712.2041321806041196
 20
1393.634607922692112
 30
0.0
  0
POINT
  5
1796
  8
DEFPOINTS
 62
     0
 10
4528.2041321806018459
 20
1414.6429041755850449
 30
0.0
  0
POINT
  5
1797
  8
DEFPOINTS
 62
     0
 10
4528.2041321806018459
 20
1434.502289142689051
 30
0.0
  0
ENDBLK
  5
1798
  8
0
  0
BLOCK
  8
0
  2
*U325
 70
     1
 10
0.0
 20
0.0
 30
0.0
  3
*U325
  1

  0
TEXT
  5
18B4
  8
0
 62
     0
 10
4102.7041321806027554
 20
1444.502289142689051
 30
0.0
 40
15.0
  1
816
  0
ENDBLK
  5
18B6
  8
0
  0
BLOCK
  8
0
  2
*D326
 70
     1
 10
0.0
 20
0.0
 30
0.0
  3
*D326
  1

  0
LINE
  5
1807
  8
0
 62
     0
 10
1870.8444666745290306
 20
1435.5300318667309512
 30
0.0
 11
2656.8444666745272116
 21
1435.5300318667309512
 31
0.0
  0
SOLID
  5
1808
  8
0
 62
     0
 10
1870.8444666745290306
 20
1438.0300318667309512
 30
0.0
 11
1870.8444666745290306
 21
1433.0300318667309512
 31
0.0
 12
1855.8444666745290306
 22
1435.5300318667309512
 32
0.0
 13
1855.8444666745290306
 23
1435.5300318667309512
 33
0.0
  0
SOLID
  5
1809
  8
0
 62
     0
 10
2656.8444666745272116
 20
1438.0300318667309512
 30
0.0
 11
2656.8444666745272116
 21
1433.0300318667309512
 31
0.0
 12
2671.8444666745281211
 22
1435.5300318667309512
 32
0.0
 13
2671.8444666745281211
 23
1435.5300318667309512
 33
0.0
  0
INSERT
  5
180A
  8
0
  2
*U327
 10
0.0
 20
0.0
 30
0.0
  0
POINT
  5
180B
  8
DEFPOINTS
 62
     0
 10
1855.8444666745290306
 20
1394.6623506467331026
 30
0.0
  0
POINT
  5
180C
  8
DEFPOINTS
 62
     0
 10
2671.8444666745281211
 20
1415.6706468996260355
 30
0.0
  0
POINT
  5
180D
  8
DEFPOINTS
 62
     0
 10
2671.8444666745281211
 20
1435.5300318667309512
 30
0.0
  0
ENDBLK
  5
17FC
  8
0
  0
BLOCK
  8
0
  2
*U327
 70
     1
 10
0.0
 20
0.0
 30
0.0
  3
*U327
  1

  0
TEXT
  5
18BC
  8
0
 62
     0
 10
2246.3444666745281211
 20
1445.5300318667309512
 30
0.0
 40
15.0
  1
816
  0
ENDBLK
  5
18BE
  8
0
  0
BLOCK
  8
0
  2
*D328
 70
     1
 10
0.0
 20
0.0
 30
0.0
  3
*D328
  1

  0
LINE
  5
180E
  8
0
 62
     0
 10
1825.5185642119020031
 20
1391.1623506467331026
 30
0.0
 11
1825.5185642119020031
 21
907.1623506467343532
 31
0.0
  0
SOLID
  5
180F
  8
0
 62
     0
 10
1823.0185642119029126
 20
1391.1623506467331026
 30
0.0
 11
1828.0185642119020031
 21
1391.1623506467331026
 31
0.0
 12
1825.5185642119020031
 22
1406.1623506467340121
 32
0.0
 13
1825.5185642119020031
 23
1406.1623506467340121
 33
0.0
  0
SOLID
  5
1810
  8
0
 62
     0
 10
1823.0185642119029126
 20
907.1623506467343532
 30
0.0
 11
1828.0185642119020031
 21
907.1623506467343532
 31
0.0
 12
1825.5185642119020031
 22
892.1623506467343532
 32
0.0
 13
1825.5185642119020031
 23
892.1623506467343532
 33
0.0
  0
INSERT
  5
1811
  8
0
  2
*U329
 10
0.0
 20
0.0
 30
0.0
  0
POINT
  5
1812
  8
DEFPOINTS
 62
     0
 10
1867.3444666745310769
 20
1406.1623506467340121
 30
0.0
  0
POINT
  5
1813
  8
DEFPOINTS
 62
     0
 10
1867.3444666745310769
 20
892.1623506467343532
 30
0.0
  0
POINT
  5
1814
  8
DEFPOINTS
 62
     0
 10
1825.5185642119020031
 20
892.1623506467343532
 30
0.0
  0
ENDBLK
  5
1806
  8
0
  0
BLOCK
  8
0
  2
*U329
 70
     1
 10
0.0
 20
0.0
 30
0.0
  3
*U329
  1

  0
TEXT
  5
18C0
  8
0
 62
     0
 10
1815.5185642119020031
 20
1131.6623506467340121
 30
0.0
 40
15.0
  1
514
 50
90.0
  0
ENDBLK
  5
18C2
  8
0
  0
BLOCK
  8
0
  2
*D330
 70
     1
 10
0.0
 20
0.0
 30
0.0
  3
*D330
  1

  0
LINE
  5
182F
  8
0
 62
     0
 10
3680.6884281210218433
 20
-78.9441373710133121
 30
0.0
 11
3680.6884281210218433
 21
-560.9441373710133121
 31
0.0
  0
SOLID
  5
1830
  8
0
 62
     0
 10
3678.1884281210218433
 20
-78.9441373710133121
 30
0.0
 11
3683.1884281210218433
 21
-78.9441373710133121
 31
0.0
 12
3680.6884281210218433
 22
-63.9441373710133192
 32
0.0
 13
3680.6884281210218433
 23
-63.9441373710133192
 33
0.0
  0
SOLID
  5
1831
  8
0
 62
     0
 10
3678.1884281210218433
 20
-560.9441373710133121
 30
0.0
 11
3683.1884281210218433
 21
-560.9441373710133121
 31
0.0
 12
3680.6884281210218433
 22
-575.9441373710131984
 32
0.0
 13
3680.6884281210218433
 23
-575.9441373710131984
 33
0.0
  0
INSERT
  5
1832
  8
0
  2
*U331
 10
0.0
 20
0.0
 30
0.0
  0
POINT
  5
1833
  8
DEFPOINTS
 62
     0
 10
3697.1586723742520917
 20
-63.9441373710133192
 30
0.0
  0
POINT
  5
1834
  8
DEFPOINTS
 62
     0
 10
3714.7192520533740208
 20
-575.9441373710131984
 30
0.0
  0
POINT
  5
1835
  8
DEFPOINTS
 62
     0
 10
3680.6884281210218433
 20
-575.9441373710131984
 30
0.0
  0
ENDBLK
  5
1837
  8
0
  0
BLOCK
  8
0
  2
*U331
 70
     1
 10
0.0
 20
0.0
 30
0.0
  3
*U331
  1

  0
TEXT
  5
18C8
  8
0
 62
     0
 10
3670.6884281210218433
 20
-337.4441373710126868
 30
0.0
 40
15.0
  1
512
 50
90.0
  0
ENDBLK
  5
18CA
  8
0
  0
BLOCK
  8
0
  2
*D332
 70
     1
 10
0.0
 20
0.0
 30
0.0
  3
*D332
  1

  0
LINE
  5
1839
  8
0
 62
     0
 10
3718.2192520533758398
 20
-46.5165376784898328
 30
0.0
 11
4606.219252053373566
 21
-46.5165376784898328
 31
0.0
  0
SOLID
  5
183A
  8
0
 62
     0
 10
3718.2192520533758398
 20
-44.0165376784898328
 30
0.0
 11
3718.2192520533758398
 21
-49.0165376784898328
 31
0.0
 12
3703.2192520533758398
 22
-46.5165376784898328
 32
0.0
 13
3703.2192520533758398
 23
-46.5165376784898328
 33
0.0
  0
SOLID
  5
183B
  8
0
 62
     0
 10
4606.219252053373566
 20
-44.0165376784898328
 30
0.0
 11
4606.219252053373566
 21
-49.0165376784898328
 31
0.0
 12
4621.219252053373566
 22
-46.5165376784898328
 32
0.0
 13
4621.219252053373566
 23
-46.5165376784898328
 33
0.0
  0
INSERT
  5
183C
  8
0
  2
*U333
 10
0.0
 20
0.0
 30
0.0
  0
POINT
  5
183D
  8
DEFPOINTS
 62
     0
 10
3703.2192520533758398
 20
-75.4441373710133121
 30
0.0
  0
POINT
  5
183E
  8
DEFPOINTS
 62
     0
 10
4621.219252053373566
 20
-56.4069314788721385
 30
0.0
  0
POINT
  5
183F
  8
DEFPOINTS
 62
     0
 10
4621.219252053373566
 20
-46.5165376784898328
 30
0.0
  0
ENDBLK
  5
1841
  8
0
  0
BLOCK
  8
0
  2
*U333
 70
     1
 10
0.0
 20
0.0
 30
0.0
  3
*U333
  1

  0
TEXT
  5
18CC
  8
0
 62
     0
 10
4144.7192520533762945
 20
-36.5165376784898328
 30
0.0
 40
15.0
  1
918
  0
ENDBLK
  5
18CE
  8
0
  0
BLOCK
  8
0
  2
*D334
 70
     1
 10
0.0
 20
0.0
 30
0.0
  3
*D334
  1

  0
LINE
  5
184B
  8
0
 62
     0
 10
5752.4204946845165978
 20
-23.0357240101880087
 30
0.0
 11
6538.4204946845202358
 21
-23.0357240101880087
 31
0.0
  0
SOLID
  5
184C
  8
0
 62
     0
 10
5752.4204946845165978
 20
-20.5357240101880087
 30
0.0
 11
5752.4204946845165978
 21
-25.5357240101880087
 31
0.0
 12
5737.4204946845165978
 22
-23.0357240101880087
 32
0.0
 13
5737.4204946845165978
 23
-23.0357240101880087
 33
0.0
  0
SOLID
  5
184D
  8
0
 62
     0
 10
6538.4204946845202358
 20
-20.5357240101880087
 30
0.0
 11
6538.4204946845202358
 21
-25.5357240101880087
 31
0.0
 12
6553.4204946845202358
 22
-23.0357240101880087
 32
0.0
 13
6553.4204946845202358
 23
-23.0357240101880087
 33
0.0
  0
INSERT
  5
184E
  8
0
  2
*U335
 10
0.0
 20
0.0
 30
0.0
  0
POINT
  5
184F
  8
DEFPOINTS
 62
     0
 10
5737.4204946845165978
 20
-40.6594290320863223
 30
0.0
  0
POINT
  5
1850
  8
DEFPOINTS
 62
     0
 10
6553.4204946845202358
 20
-58.542235838927823
 30
0.0
  0
POINT
  5
1851
  8
DEFPOINTS
 62
     0
 10
6553.4204946845202358
 20
-23.0357240101880087
 30
0.0
  0
ENDBLK
  5
1853
  8
0
  0
BLOCK
  8
0
  2
*U335
 70
     1
 10
0.0
 20
0.0
 30
0.0
  3
*U335
  1

  0
TEXT
  5
18D0
  8
0
 62
     0
 10
6127.9204946845156883
 20
-13.0357240101880105
 30
0.0
 40
15.0
  1
816
  0
ENDBLK
  5
18D2
  8
0
  0
BLOCK
  8
0
  2
*U336
 70
     1
 10
0.0
 20
0.0
 30
0.0
  3
*U336
  1

  0
TEXT
  5
1856
  8
0
 62
     1
 10
6535.2910408698453466
 20
-117.3585305118754007
 30
0.0
 40
20.0
  1
zero reveal cut-out
  0
ENDBLK
  5
1857
  8
0
  0
BLOCK
  8
0
  2
*U337
 70
     1
 10
0.0
 20
0.0
 30
0.0
  3
*U337
  1

  0
TEXT
  5
18C4
  8
0
 10
2352.3475430076391604
 20
301.9761024567450818
 30
0.0
 40
25.0
  1
TZ M812_M
  0
ENDBLK
  5
18C6
  8
0
  0
BLOCK
  8
0
  2
*D338
 70
     1
 10
0.0
 20
0.0
 30
0.0
  3
*D338
  1

  0
LINE
  5
1BD6
  8
0
 62
     0
 10
5764.8370518275851282
 20
1412.5324862040479275
 30
0.0
 11
6398.8370518275842187
 21
1412.5324862040479275
 31
0.0
  0
SOLID
  5
1BD7
  8
0
 62
     0
 10
5764.8370518275851282
 20
1415.0324862040479275
 30
0.0
 11
5764.8370518275851282
 21
1410.0324862040479275
 31
0.0
 12
5749.8370518275860377
 22
1412.5324862040479275
 32
0.0
 13
5749.8370518275860377
 23
1412.5324862040479275
 33
0.0
  0
SOLID
  5
1BD8
  8
0
 62
     0
 10
6398.8370518275842187
 20
1415.0324862040479275
 30
0.0
 11
6398.8370518275842187
 21
1410.0324862040479275
 31
0.0
 12
6413.8370518275842187
 22
1412.5324862040479275
 32
0.0
 13
6413.8370518275842187
 23
1412.5324862040479275
 33
0.0
  0
INSERT
  5
1BD9
  8
0
  2
*U339
 10
0.0
 20
0.0
 30
0.0
  0
POINT
  5
1BDA
  8
DEFPOINTS
 62
     0
 10
5749.8370518275860377
 20
1376.7888329762599824
 30
0.0
  0
POINT
  5
1BDB
  8
DEFPOINTS
 62
     0
 10
6413.8370518275842187
 20
1397.3669641172180036
 30
0.0
  0
POINT
  5
1BDC
  8
DEFPOINTS
 62
     0
 10
6413.8370518275842187
 20
1412.5324862040479275
 30
0.0
  0
ENDBLK
  5
1BDE
  8
0
  0
BLOCK
  8
0
  2
*U339
 70
     1
 10
0.0
 20
0.0
 30
0.0
  3
*U339
  1

  0
TEXT
  5
1C15
  8
0
 62
     0
 10
6061.8370518275842187
 20
1422.5324862040479275
 30
0.0
 40
15.0
  1
664
  0
ENDBLK
  5
1C17
  8
0
  0
BLOCK
  8
0
  2
*D340
 70
     1
 10
0.0
 20
0.0
 30
0.0
  3
*D340
  1

  0
LINE
  5
1F0A
  8
0
 62
     0
 10
5752.4204946845165978
 20
-22.9376219161002304
 30
0.0
 11
6551.4201245246003964
 21
-22.9376219161002304
 31
0.0
  0
SOLID
  5
1F0B
  8
0
 62
     0
 10
5752.4204946845165978
 20
-20.4376219161002304
 30
0.0
 11
5752.4204946845165978
 21
-25.4376219161002304
 31
0.0
 12
5737.4204946845165978
 22
-22.9376219161002304
 32
0.0
 13
5737.4204946845165978
 23
-22.9376219161002304
 33
0.0
  0
SOLID
  5
1F0C
  8
0
 62
     0
 10
6551.4201245246003964
 20
-20.4376219161002304
 30
0.0
 11
6551.4201245246003964
 21
-25.4376219161002304
 31
0.0
 12
6566.4201245246022154
 22
-22.9376219161002304
 32
0.0
 13
6566.4201245246022154
 23
-22.9376219161002304
 33
0.0
  0
INSERT
  5
1F0D
  8
0
  2
*U341
 10
0.0
 20
0.0
 30
0.0
  0
POINT
  5
1F0E
  8
DEFPOINTS
 62
     0
 10
5737.4204946845165978
 20
-40.6594290320863223
 30
0.0
  0
POINT
  5
1F0F
  8
DEFPOINTS
 62
     0
 10
6566.4201245246022154
 20
-58.4441337448400375
 30
0.0
  0
POINT
  5
1F10
  8
DEFPOINTS
 62
     0
 10
6566.4201245246022154
 20
-22.9376219161002304
 30
0.0
  0
ENDBLK
  5
1F09
  8
0
  0
BLOCK
  8
0
  2
*U341
 70
     1
 10
0.0
 20
0.0
 30
0.0
  3
*U341
  1

  0
TEXT
  5
2A31
  8
0
 62
     0
 10
6131.9203096045575876
 20
-12.9376219161002304
 30
0.0
 40
15.0
  1
829
  0
ENDBLK
  5
2A33
  8
0
  0
BLOCK
  8
0
  2
*D342
 70
     1
 10
0.0
 20
0.0
 30
0.0
  3
*D342
  1

  0
LINE
  5
1F12
  8
0
 62
     0
 10
5698.0541105024722128
 20
-62.0422358389278017
 30
0.0
 11
5698.0541105024722128
 21
-578.0422358389273541
 31
0.0
  0
SOLID
  5
1F13
  8
0
 62
     0
 10
5695.5541105024722128
 20
-62.0422358389278017
 30
0.0
 11
5700.5541105024731223
 21
-62.0422358389278017
 31
0.0
 12
5698.0541105024722128
 22
-47.0422358389277875
 32
0.0
 13
5698.0541105024722128
 23
-47.0422358389277875
 33
0.0
  0
SOLID
  5
1F14
  8
0
 62
     0
 10
5695.5541105024722128
 20
-578.0422358389273541
 30
0.0
 11
5700.5541105024731223
 21
-578.0422358389273541
 31
0.0
 12
5698.0541105024722128
 22
-593.0422358389273541
 32
0.0
 13
5698.0541105024722128
 23
-593.0422358389273541
 33
0.0
  0
INSERT
  5
1F15
  8
0
  2
*U343
 10
0.0
 20
0.0
 30
0.0
  0
POINT
  5
1F16
  8
DEFPOINTS
 62
     0
 10
5748.9204946845193263
 20
-47.0422358389278088
 30
0.0
  0
POINT
  5
1F17
  8
DEFPOINTS
 62
     0
 10
5748.9204946845193263
 20
-593.0422358389273541
 30
0.0
  0
POINT
  5
1F18
  8
DEFPOINTS
 62
     0
 10
5698.0541105024722128
 20
-593.0422358389273541
 30
0.0
  0
ENDBLK
  5
1F1A
  8
0
  0
BLOCK
  8
0
  2
*U343
 70
     1
 10
0.0
 20
0.0
 30
0.0
  3
*U343
  1

  0
TEXT
  5
2A35
  8
0
 62
     0
 10
5688.0541105024740318
 20
-340.0422358389266719
 30
0.0
 40
15.0
  1
546
 50
90.0
  0
ENDBLK
  5
2A37
  8
0
  0
BLOCK
  8
0
  2
*U344
 70
     1
 10
0.0
 20
0.0
 30
0.0
  3
*U344
  1

  0
TEXT
  5
1F26
  8
0
 10
5539.6052838558516669
 20
-1042.4231297877290672
 30
0.0
 40
17.0
  1
TOPZERO
  0
TEXT
  5
1F27
  8
0
 10
5539.6052838558516669
 20
-1070.7564631210620973
 30
0.0
 40
17.0
  1
www.topzero.com
  0
ENDBLK
  5
1F28
  8
0
  0
BLOCK
  8
0
  2
*U345
 70
     1
 10
0.0
 20
0.0
 30
0.0
  3
*U345
  1

  0
TEXT
  5
1F2B
  8
0
 10
6065.0260712844983573
 20
-1029.8389845157200853
 30
0.0
 40
18.0
  1
32''  LARGEEQUAL DOUBLE BOWL
  0
ENDBLK
  5
1F2C
  8
0
  0
BLOCK
  8
0
  2
*U346
 70
     1
 10
0.0
 20
0.0
 30
0.0
  3
*U346
  1

  0
TEXT
  5
1F2F
  8
0
 10
5882.1608490939297553
 20
-1137.3444490639180913
 30
0.0
 40
15.0
  1
Stainless
  0
TEXT
  5
1F30
  8
0
 10
5882.1608490939297553
 20
-1162.3444490639180913
 30
0.0
 40
15.0
  1
steel
  0
ENDBLK
  5
1F31
  8
0
  0
BLOCK
  8
0
  2
*U347
 70
     1
 10
0.0
 20
0.0
 30
0.0
  3
*U347
  1

  0
TEXT
  5
1F34
  8
0
 10
6758.7067852180161935
 20
-1153.0398136992980653
 30
0.0
 40
20.0
  1
10/2020
  0
ENDBLK
  5
1F35
  8
0
  0
BLOCK
  8
0
  2
*U348
 70
     1
 10
0.0
 20
0.0
 30
0.0
  3
*U348
  1

  0
TEXT
  5
1F38
  8
0
 10
6913.7477687559248807
 20
-21.003229271015929
 30
0.0
 40
20.0
  1
mm
  0
TEXT
  5
1F39
  8
0
 10
6887.0811020892579108
 20
-54.3365626043492611
 30
0.0
 40
20.0
  1
[
  0
TEXT
  5
1F3A
  8
0
 10
6900.414435422590941
 20
-54.3365626043492611
 30
0.0
 40
20.0
  1
inch
  0
TEXT
  5
1F3B
  8
0
 10
6967.0811020892588203
 20
-54.3365626043492611
 30
0.0
 40
20.0
  1
]
  0
ENDBLK
  5
1F3C
  8
0
  0
BLOCK
  8
0
  2
*U349
 70
     1
 10
0.0
 20
0.0
 30
0.0
  3
*U349
  1

  0
TEXT
  5
1F3F
  8
0
 10
6650.1572366616774161
 20
-974.5852676629779126
 30
0.0
 40
12.0
  1
This template file is meant to be a guideline
  0
TEXT
  5
1F40
  8
0
 10
6650.1572366616774161
 20
-994.5852676629775715
 30
0.0
 40
12.0
  1
and must be compared with the actual product
  0
TEXT
  5
1F41
  8
0
 10
6650.1572366616774161
 20
-1014.5852676629780262
 30
0.0
 40
12.0
  1
which should always be present to ensure a
  0
TEXT
  5
1F42
  8
0
 10
6650.1572366616774161
 20
-1034.5852676629770031
 30
0.0
 40
12.0
  1
perfect cut.Testing on a scrap piece before
  0
TEXT
  5
1F43
  8
0
 10
6650.1572366616774161
 20
-1054.5852676629770031
 30
0.0
 40
12.0
  1
the final cut is always recommended.
  0
TEXT
  5
1F44
  8
0
 10
6650.1572366616774161
 20
-1074.5852676629770031
 30
0.0
 40
12.0
  1
UKINOX IS NOT RESPONSIBLE FOR ANY IMPROPERLY
  0
TEXT
  5
1F45
  8
0
 10
6650.1572366616774161
 20
-1094.5852676629770031
 30
0.0
 40
12.0
  1
CUT COUNTERTOP OR AN IMPROPER INSTALLATION.
  0
ENDBLK
  5
1F46
  8
0
  0
BLOCK
  8
0
  2
*U350
 70
     1
 10
0.0
 20
0.0
 30
0.0
  3
*U350
  1

  0
TEXT
  5
1F49
  8
0
 62
     1
 10
5676.9683931830513757
 20
-270.2633468291501231
 30
0.0
 40
15.0
  1
20
 50
89.9999999999999858
  0
TEXT
  5
1F4A
  8
0
 62
     1
 10
5667.7183931830513757
 20
-238.2633468291500947
 30
0.0
 40
10.5
  1
1
 50
89.9999999999999858
  0
LINE
  5
1F4B
  8
0
 62
     1
 10
5669.4683931830495567
 20
-240.0133468291500947
 30
0.0
 11
5669.4683931830495567
 21
-233.0133468291500947
 31
0.0
  0
TEXT
  5
1F4C
  8
0
 62
     1
 10
5681.7183931830495567
 20
-240.0133468291500947
 30
0.0
 40
10.5
  1
8
 50
89.9999999999999858
  0
TEXT
  5
1F4D
  8
0
 62
     1
 10
5676.9706431830509246
 20
-228.6383468291500947
 30
0.0
 40
15.0045000000000002
  1
"
 50
89.9999999999999858
  0
ENDBLK
  5
1F4E
  8
0
  0
BLOCK
  8
0
  2
*U351
 70
     1
 10
0.0
 20
0.0
 30
0.0
  3
*U351
  1

  0
TEXT
  5
1F51
  8
0
 62
     1
 10
6183.3794131176045994
 20
7.0304079884945132
 30
0.0
 40
15.0
  1
32
  0
TEXT
  5
1F52
  8
0
 62
     1
 10
6218.1294131176045994
 20
16.280407988494499
 30
0.0
 40
10.5
  1
1
  0
LINE
  5
1F53
  8
0
 62
     1
 10
6216.3794131176036899
 20
14.5304079884945008
 30
0.0
 11
6223.3794131176045994
 21
14.5304079884945008
 31
0.0
  0
TEXT
  5
1F54
  8
0
 62
     1
 10
6216.3794131176036899
 20
2.2804079884945021
 30
0.0
 40
10.5
  1
8
  0
TEXT
  5
1F55
  8
0
 62
     1
 10
6227.7544131176045994
 20
7.0281579884944962
 30
0.0
 40
15.0045000000000002
  1
"
  0
ENDBLK
  5
1F56
  8
0
  0
BLOCK
  8
0
  2
*U352
 70
     1
 10
0.0
 20
0.0
 30
0.0
  3
*U352
  1

  0
TEXT
  5
1F59
  8
0
 62
     1
 10
6535.2910408698453466
 20
-117.3585305118754007
 30
0.0
 40
20.0
  1
zero reveal cut-out
  0
ENDBLK
  5
1F5A
  8
0
  0
BLOCK
  8
0
  2
*D353
 70
     1
 10
0.0
 20
0.0
 30
0.0
  3
*D353
  1

  0
LINE
  5
1F5D
  8
0
 62
     0
 10
5752.4204946845165978
 20
-22.9376219161002304
 30
0.0
 11
6551.4201245246003964
 21
-22.9376219161002304
 31
0.0
  0
SOLID
  5
1F5E
  8
0
 62
     0
 10
5752.4204946845165978
 20
-20.4376219161002304
 30
0.0
 11
5752.4204946845165978
 21
-25.4376219161002304
 31
0.0
 12
5737.4204946845165978
 22
-22.9376219161002304
 32
0.0
 13
5737.4204946845165978
 23
-22.9376219161002304
 33
0.0
  0
SOLID
  5
1F5F
  8
0
 62
     0
 10
6551.4201245246003964
 20
-20.4376219161002304
 30
0.0
 11
6551.4201245246003964
 21
-25.4376219161002304
 31
0.0
 12
6566.4201245246022154
 22
-22.9376219161002304
 32
0.0
 13
6566.4201245246022154
 23
-22.9376219161002304
 33
0.0
  0
INSERT
  5
1F60
  8
0
  2
*U354
 10
0.0
 20
0.0
 30
0.0
  0
POINT
  5
1F61
  8
DEFPOINTS
 62
     0
 10
5737.4204946845165978
 20
-40.6594290320863223
 30
0.0
  0
POINT
  5
1F62
  8
DEFPOINTS
 62
     0
 10
6566.4201245246022154
 20
-58.4441337448400375
 30
0.0
  0
POINT
  5
1F63
  8
DEFPOINTS
 62
     0
 10
6566.4201245246022154
 20
-22.9376219161002304
 30
0.0
  0
ENDBLK
  5
1F64
  8
0
  0
BLOCK
  8
0
  2
*U354
 70
     1
 10
0.0
 20
0.0
 30
0.0
  3
*U354
  1

  0
TEXT
  5
2A3D
  8
0
 62
     0
 10
6131.9203096045575876
 20
-12.9376219161002304
 30
0.0
 40
15.0
  1
829
  0
ENDBLK
  5
2A3F
  8
0
  0
BLOCK
  8
0
  2
*D355
 70
     1
 10
0.0
 20
0.0
 30
0.0
  3
*D355
  1

  0
LINE
  5
1F67
  8
0
 62
     0
 10
5698.0541105024722128
 20
-62.0422358389278017
 30
0.0
 11
5698.0541105024722128
 21
-578.0422358389273541
 31
0.0
  0
SOLID
  5
1F68
  8
0
 62
     0
 10
5695.5541105024722128
 20
-62.0422358389278017
 30
0.0
 11
5700.5541105024731223
 21
-62.0422358389278017
 31
0.0
 12
5698.0541105024722128
 22
-47.0422358389277875
 32
0.0
 13
5698.0541105024722128
 23
-47.0422358389277875
 33
0.0
  0
SOLID
  5
1F69
  8
0
 62
     0
 10
5695.5541105024722128
 20
-578.0422358389273541
 30
0.0
 11
5700.5541105024731223
 21
-578.0422358389273541
 31
0.0
 12
5698.0541105024722128
 22
-593.0422358389273541
 32
0.0
 13
5698.0541105024722128
 23
-593.0422358389273541
 33
0.0
  0
INSERT
  5
1F6A
  8
0
  2
*U356
 10
0.0
 20
0.0
 30
0.0
  0
POINT
  5
1F6B
  8
DEFPOINTS
 62
     0
 10
5748.9204946845193263
 20
-47.0422358389278088
 30
0.0
  0
POINT
  5
1F6C
  8
DEFPOINTS
 62
     0
 10
5748.9204946845193263
 20
-593.0422358389273541
 30
0.0
  0
POINT
  5
1F6D
  8
DEFPOINTS
 62
     0
 10
5698.0541105024722128
 20
-593.0422358389273541
 30
0.0
  0
ENDBLK
  5
1F6E
  8
0
  0
BLOCK
  8
0
  2
*U356
 70
     1
 10
0.0
 20
0.0
 30
0.0
  3
*U356
  1

  0
TEXT
  5
2A41
  8
0
 62
     0
 10
5688.0541105024740318
 20
-340.0422358389266719
 30
0.0
 40
15.0
  1
546
 50
90.0
  0
ENDBLK
  5
2A43
  8
0
  0
BLOCK
  8
0
  2
*D357
 70
     1
 10
0.0
 20
0.0
 30
0.0
  3
*D357
  1

  0
LINE
  5
1FF2
  8
0
 62
     0
 10
5769.0301658682228663
 20
-1445.0336101283749031
 30
0.0
 11
6530.0297957083057554
 21
-1445.0336101283749031
 31
0.0
  0
SOLID
  5
1FF3
  8
0
 62
     0
 10
5769.0301658682228663
 20
-1442.5336101283739936
 30
0.0
 11
5769.0301658682228663
 21
-1447.5336101283739936
 31
0.0
 12
5754.0301658682210473
 22
-1445.0336101283749031
 32
0.0
 13
5754.0301658682210473
 23
-1445.0336101283749031
 33
0.0
  0
SOLID
  5
1FF4
  8
0
 62
     0
 10
6530.0297957083057554
 20
-1442.5336101283739936
 30
0.0
 11
6530.0297957083057554
 21
-1447.5336101283739936
 31
0.0
 12
6545.0297957083048459
 22
-1445.0336101283749031
 32
0.0
 13
6545.0297957083048459
 23
-1445.0336101283749031
 33
0.0
  0
INSERT
  5
1FF5
  8
0
  2
*U358
 10
0.0
 20
0.0
 30
0.0
  0
POINT
  5
1FF6
  8
DEFPOINTS
 62
     0
 10
5754.0301658682210473
 20
-1462.7554172443610696
 30
0.0
  0
POINT
  5
1FF7
  8
DEFPOINTS
 62
     0
 10
6545.0297957083048459
 20
-1480.540121957114934
 30
0.0
  0
POINT
  5
1FF8
  8
DEFPOINTS
 62
     0
 10
6545.0297957083048459
 20
-1445.0336101283749031
 30
0.0
  0
ENDBLK
  5
1FD2
  8
0
  0
BLOCK
  8
0
  2
*U358
 70
     1
 10
0.0
 20
0.0
 30
0.0
  3
*U358
  1

  0
TEXT
  5
2A55
  8
0
 62
     0
 10
6132.0299807882638561
 20
-1435.0336101283739936
 30
0.0
 40
15.0
  1
791
  0
ENDBLK
  5
2A57
  8
0
  0
BLOCK
  8
0
  2
*D359
 70
     1
 10
0.0
 20
0.0
 30
0.0
  3
*D359
  1

  0
LINE
  5
1FF9
  8
0
 62
     0
 10
5714.6637816861757528
 20
-1484.1382240512029966
 30
0.0
 11
5714.6637816861757528
 21
-1890.1382240512020871
 31
0.0
  0
SOLID
  5
1FFA
  8
0
 62
     0
 10
5712.1637816861775718
 20
-1484.1382240512029966
 30
0.0
 11
5717.1637816861775718
 21
-1484.1382240512029966
 31
0.0
 12
5714.6637816861757528
 22
-1469.1382240512029966
 32
0.0
 13
5714.6637816861757528
 23
-1469.1382240512029966
 33
0.0
  0
SOLID
  5
1FFB
  8
0
 62
     0
 10
5712.1637816861775718
 20
-1890.1382240512020871
 30
0.0
 11
5717.1637816861775718
 21
-1890.1382240512020871
 31
0.0
 12
5714.6637816861757528
 22
-1905.1382240512029966
 32
0.0
 13
5714.6637816861757528
 23
-1905.1382240512029966
 33
0.0
  0
INSERT
  5
1FFC
  8
0
  2
*U360
 10
0.0
 20
0.0
 30
0.0
  0
POINT
  5
1FFD
  8
DEFPOINTS
 62
     0
 10
5765.5301658682237758
 20
-1469.1382240512029966
 30
0.0
  0
POINT
  5
1FFE
  8
DEFPOINTS
 62
     0
 10
5765.5301658682237758
 20
-1905.1382240512029966
 30
0.0
  0
POINT
  5
1FFF
  8
DEFPOINTS
 62
     0
 10
5714.6637816861757528
 20
-1905.1382240512029966
 30
0.0
  0
ENDBLK
  5
1FDC
  8
0
  0
BLOCK
  8
0
  2
*U360
 70
     1
 10
0.0
 20
0.0
 30
0.0
  3
*U360
  1

  0
TEXT
  5
2A59
  8
0
 62
     0
 10
5704.6637816861775718
 20
-1707.1382240512020871
 30
0.0
 40
15.0
  1
436
 50
90.0
  0
ENDBLK
  5
2A5B
  8
0
  0
BLOCK
  8
0
  2
*U361
 70
     1
 10
0.0
 20
0.0
 30
0.0
  3
*U361
  1

  0
TEXT
  5
2035
  8
0
 10
5539.6052838558516669
 20
-1042.4231297877290672
 30
0.0
 40
17.0
  1
TOPZERO
  0
TEXT
  5
2036
  8
0
 10
5539.6052838558516669
 20
-1070.7564631210620973
 30
0.0
 40
17.0
  1
www.topzero.com
  0
ENDBLK
  5
2037
  8
0
  0
BLOCK
  8
0
  2
*U362
 70
     1
 10
0.0
 20
0.0
 30
0.0
  3
*U362
  1

  0
TEXT
  5
203A
  8
0
 10
6065.0260712844983573
 20
-1029.8389845157200853
 30
0.0
 40
18.0
  1
32''  LARGEEQUAL DOUBLE BOWL
  0
ENDBLK
  5
203B
  8
0
  0
BLOCK
  8
0
  2
*U363
 70
     1
 10
0.0
 20
0.0
 30
0.0
  3
*U363
  1

  0
TEXT
  5
203E
  8
0
 10
5882.1608490939297553
 20
-1137.3444490639180913
 30
0.0
 40
15.0
  1
Stainless
  0
TEXT
  5
203F
  8
0
 10
5882.1608490939297553
 20
-1162.3444490639180913
 30
0.0
 40
15.0
  1
steel
  0
ENDBLK
  5
2040
  8
0
  0
BLOCK
  8
0
  2
*U364
 70
     1
 10
0.0
 20
0.0
 30
0.0
  3
*U364
  1

  0
TEXT
  5
2043
  8
0
 10
6758.7067852180161935
 20
-1153.0398136992980653
 30
0.0
 40
20.0
  1
10/2020
  0
ENDBLK
  5
2044
  8
0
  0
BLOCK
  8
0
  2
*U365
 70
     1
 10
0.0
 20
0.0
 30
0.0
  3
*U365
  1

  0
TEXT
  5
2047
  8
0
 10
6913.7477687559248807
 20
-21.003229271015929
 30
0.0
 40
20.0
  1
mm
  0
TEXT
  5
2048
  8
0
 10
6887.0811020892579108
 20
-54.3365626043492611
 30
0.0
 40
20.0
  1
[
  0
TEXT
  5
2049
  8
0
 10
6900.414435422590941
 20
-54.3365626043492611
 30
0.0
 40
20.0
  1
inch
  0
TEXT
  5
204A
  8
0
 10
6967.0811020892588203
 20
-54.3365626043492611
 30
0.0
 40
20.0
  1
]
  0
ENDBLK
  5
204B
  8
0
  0
BLOCK
  8
0
  2
*U366
 70
     1
 10
0.0
 20
0.0
 30
0.0
  3
*U366
  1

  0
TEXT
  5
204E
  8
0
 10
6650.1572366616774161
 20
-974.5852676629779126
 30
0.0
 40
12.0
  1
This template file is meant to be a guideline
  0
TEXT
  5
204F
  8
0
 10
6650.1572366616774161
 20
-994.5852676629775715
 30
0.0
 40
12.0
  1
and must be compared with the actual product
  0
TEXT
  5
2050
  8
0
 10
6650.1572366616774161
 20
-1014.5852676629780262
 30
0.0
 40
12.0
  1
which should always be present to ensure a
  0
TEXT
  5
2051
  8
0
 10
6650.1572366616774161
 20
-1034.5852676629770031
 30
0.0
 40
12.0
  1
perfect cut.Testing on a scrap piece before
  0
TEXT
  5
2052
  8
0
 10
6650.1572366616774161
 20
-1054.5852676629770031
 30
0.0
 40
12.0
  1
the final cut is always recommended.
  0
TEXT
  5
2053
  8
0
 10
6650.1572366616774161
 20
-1074.5852676629770031
 30
0.0
 40
12.0
  1
UKINOX IS NOT RESPONSIBLE FOR ANY IMPROPERLY
  0
TEXT
  5
2054
  8
0
 10
6650.1572366616774161
 20
-1094.5852676629770031
 30
0.0
 40
12.0
  1
CUT COUNTERTOP OR AN IMPROPER INSTALLATION.
  0
ENDBLK
  5
2055
  8
0
  0
BLOCK
  8
0
  2
*U367
 70
     1
 10
0.0
 20
0.0
 30
0.0
  3
*U367
  1

  0
TEXT
  5
2058
  8
0
 62
     1
 10
6535.2910408698453466
 20
-117.3585305118754007
 30
0.0
 40
20.0
  1
zero reveal cut-out
  0
ENDBLK
  5
2059
  8
0
  0
BLOCK
  8
0
  2
*D368
 70
     1
 10
0.0
 20
0.0
 30
0.0
  3
*D368
  1

  0
LINE
  5
205C
  8
0
 62
     0
 10
5752.4204946845165978
 20
-22.9376219161002304
 30
0.0
 11
6551.4201245246003964
 21
-22.9376219161002304
 31
0.0
  0
SOLID
  5
205D
  8
0
 62
     0
 10
5752.4204946845165978
 20
-20.4376219161002304
 30
0.0
 11
5752.4204946845165978
 21
-25.4376219161002304
 31
0.0
 12
5737.4204946845165978
 22
-22.9376219161002304
 32
0.0
 13
5737.4204946845165978
 23
-22.9376219161002304
 33
0.0
  0
SOLID
  5
205E
  8
0
 62
     0
 10
6551.4201245246003964
 20
-20.4376219161002304
 30
0.0
 11
6551.4201245246003964
 21
-25.4376219161002304
 31
0.0
 12
6566.4201245246022154
 22
-22.9376219161002304
 32
0.0
 13
6566.4201245246022154
 23
-22.9376219161002304
 33
0.0
  0
INSERT
  5
205F
  8
0
  2
*U369
 10
0.0
 20
0.0
 30
0.0
  0
POINT
  5
2060
  8
DEFPOINTS
 62
     0
 10
5737.4204946845165978
 20
-40.6594290320863223
 30
0.0
  0
POINT
  5
2061
  8
DEFPOINTS
 62
     0
 10
6566.4201245246022154
 20
-58.4441337448400375
 30
0.0
  0
POINT
  5
2062
  8
DEFPOINTS
 62
     0
 10
6566.4201245246022154
 20
-22.9376219161002304
 30
0.0
  0
ENDBLK
  5
2063
  8
0
  0
BLOCK
  8
0
  2
*U369
 70
     1
 10
0.0
 20
0.0
 30
0.0
  3
*U369
  1

  0
TEXT
  5
2AAD
  8
0
 62
     0
 10
6131.9203096045575876
 20
-12.9376219161002304
 30
0.0
 40
15.0
  1
829
  0
ENDBLK
  5
2AAF
  8
0
  0
BLOCK
  8
0
  2
*D370
 70
     1
 10
0.0
 20
0.0
 30
0.0
  3
*D370
  1

  0
LINE
  5
2066
  8
0
 62
     0
 10
5698.0541105024722128
 20
-62.0422358389278017
 30
0.0
 11
5698.0541105024722128
 21
-578.0422358389273541
 31
0.0
  0
SOLID
  5
2067
  8
0
 62
     0
 10
5695.5541105024722128
 20
-62.0422358389278017
 30
0.0
 11
5700.5541105024731223
 21
-62.0422358389278017
 31
0.0
 12
5698.0541105024722128
 22
-47.0422358389277875
 32
0.0
 13
5698.0541105024722128
 23
-47.0422358389277875
 33
0.0
  0
SOLID
  5
2068
  8
0
 62
     0
 10
5695.5541105024722128
 20
-578.0422358389273541
 30
0.0
 11
5700.5541105024731223
 21
-578.0422358389273541
 31
0.0
 12
5698.0541105024722128
 22
-593.0422358389273541
 32
0.0
 13
5698.0541105024722128
 23
-593.0422358389273541
 33
0.0
  0
INSERT
  5
2069
  8
0
  2
*U371
 10
0.0
 20
0.0
 30
0.0
  0
POINT
  5
206A
  8
DEFPOINTS
 62
     0
 10
5748.9204946845193263
 20
-47.0422358389278088
 30
0.0
  0
POINT
  5
206B
  8
DEFPOINTS
 62
     0
 10
5748.9204946845193263
 20
-593.0422358389273541
 30
0.0
  0
POINT
  5
206C
  8
DEFPOINTS
 62
     0
 10
5698.0541105024722128
 20
-593.0422358389273541
 30
0.0
  0
ENDBLK
  5
206D
  8
0
  0
BLOCK
  8
0
  2
*U371
 70
     1
 10
0.0
 20
0.0
 30
0.0
  3
*U371
  1

  0
TEXT
  5
2AB1
  8
0
 62
     0
 10
5688.0541105024740318
 20
-340.0422358389266719
 30
0.0
 40
15.0
  1
546
 50
90.0
  0
ENDBLK
  5
2AB3
  8
0
  0
BLOCK
  8
0
  2
*D372
 70
     1
 10
0.0
 20
0.0
 30
0.0
  3
*D372
  1

  0
LINE
  5
20F1
  8
0
 62
     0
 10
3830.5952068540318578
 20
-1524.995919308835937
 30
0.0
 11
4728.5948366941156564
 21
-1524.995919308835937
 31
0.0
  0
SOLID
  5
20F2
  8
0
 62
     0
 10
3830.5952068540318578
 20
-1522.495919308835937
 30
0.0
 11
3830.5952068540318578
 21
-1527.495919308835937
 31
0.0
 12
3815.5952068540318578
 22
-1524.995919308835937
 32
0.0
 13
3815.5952068540318578
 23
-1524.995919308835937
 33
0.0
  0
SOLID
  5
20F3
  8
0
 62
     0
 10
4728.5948366941156564
 20
-1522.495919308835937
 30
0.0
 11
4728.5948366941156564
 21
-1527.495919308835937
 31
0.0
 12
4743.5948366941165659
 22
-1524.995919308835937
 32
0.0
 13
4743.5948366941165659
 23
-1524.995919308835937
 33
0.0
  0
INSERT
  5
20F4
  8
0
  2
*U373
 10
0.0
 20
0.0
 30
0.0
  0
POINT
  5
20F5
  8
DEFPOINTS
 62
     0
 10
3815.5952068540318578
 20
-1542.7177264248221036
 30
0.0
  0
POINT
  5
20F6
  8
DEFPOINTS
 62
     0
 10
4743.5948366941165659
 20
-1560.502431137575968
 30
0.0
  0
POINT
  5
20F7
  8
DEFPOINTS
 62
     0
 10
4743.5948366941165659
 20
-1524.995919308835937
 30
0.0
  0
ENDBLK
  5
20D1
  8
0
  0
BLOCK
  8
0
  2
*U373
 70
     1
 10
0.0
 20
0.0
 30
0.0
  3
*U373
  1

  0
TEXT
  5
2ADD
  8
0
 62
     0
 10
4259.5950217740737571
 20
-1514.995919308835937
 30
0.0
 40
15.0
  1
928
  0
ENDBLK
  5
2ADF
  8
0
  0
BLOCK
  8
0
  2
*D374
 70
     1
 10
0.0
 20
0.0
 30
0.0
  3
*D374
  1

  0
LINE
  5
20FE
  8
0
 62
     0
 10
3776.2288226719879276
 20
-1564.1005332316628937
 30
0.0
 11
3776.2288226719879276
 21
-2078.1005332316631211
 31
0.0
  0
SOLID
  5
20FF
  8
0
 62
     0
 10
3773.7288226719879276
 20
-1564.1005332316628937
 30
0.0
 11
3778.7288226719870181
 21
-1564.1005332316628937
 31
0.0
 12
3776.2288226719879276
 22
-1549.1005332316619842
 32
0.0
 13
3776.2288226719879276
 23
-1549.1005332316619842
 33
0.0
  0
SOLID
  5
2100
  8
0
 62
     0
 10
3773.7288226719879276
 20
-2078.1005332316631211
 30
0.0
 11
3778.7288226719870181
 21
-2078.1005332316631211
 31
0.0
 12
3776.2288226719879276
 22
-2093.1005332316631211
 32
0.0
 13
3776.2288226719879276
 23
-2093.1005332316631211
 33
0.0
  0
INSERT
  5
2101
  8
0
  2
*U375
 10
0.0
 20
0.0
 30
0.0
  0
POINT
  5
2102
  8
DEFPOINTS
 62
     0
 10
3827.0952068540359505
 20
-1549.1005332316619842
 30
0.0
  0
POINT
  5
2103
  8
DEFPOINTS
 62
     0
 10
3827.0952068540359505
 20
-2093.1005332316631211
 30
0.0
  0
POINT
  5
2104
  8
DEFPOINTS
 62
     0
 10
3776.2288226719879276
 20
-2093.1005332316631211
 30
0.0
  0
ENDBLK
  5
20DB
  8
0
  0
BLOCK
  8
0
  2
*U375
 70
     1
 10
0.0
 20
0.0
 30
0.0
  3
*U375
  1

  0
TEXT
  5
2AF1
  8
0
 62
     0
 10
3766.2288226719879276
 20
-1841.1005332316628937
 30
0.0
 40
15.0
  1
544
 50
90.0
  0
ENDBLK
  5
2AF3
  8
0
  0
BLOCK
  8
0
  2
*U376
 70
     1
 10
0.0
 20
0.0
 30
0.0
  3
*U376
  1

  0
TEXT
  5
2107
  8
0
 62
     1
 10
6535.2910408698453466
 20
-117.3585305118754007
 30
0.0
 40
20.0
  1
zero reveal cut-out
  0
ENDBLK
  5
2108
  8
0
  0
BLOCK
  8
0
  2
*U377
 70
     1
 10
0.0
 20
0.0
 30
0.0
  3
*U377
  1

  0
TEXT
  5
2129
  8
0
 10
5539.6052838558516669
 20
-1042.4231297877290672
 30
0.0
 40
17.0
  1
TOPZERO
  0
TEXT
  5
212A
  8
0
 10
5539.6052838558516669
 20
-1070.7564631210620973
 30
0.0
 40
17.0
  1
www.topzero.com
  0
ENDBLK
  5
212B
  8
0
  0
BLOCK
  8
0
  2
*U378
 70
     1
 10
0.0
 20
0.0
 30
0.0
  3
*U378
  1

  0
TEXT
  5
212E
  8
0
 10
6065.0260712844983573
 20
-1029.8389845157200853
 30
0.0
 40
18.0
  1
32''  LARGEEQUAL DOUBLE BOWL
  0
ENDBLK
  5
212F
  8
0
  0
BLOCK
  8
0
  2
*U379
 70
     1
 10
0.0
 20
0.0
 30
0.0
  3
*U379
  1

  0
TEXT
  5
2132
  8
0
 10
5882.1608490939297553
 20
-1137.3444490639180913
 30
0.0
 40
15.0
  1
Stainless
  0
TEXT
  5
2133
  8
0
 10
5882.1608490939297553
 20
-1162.3444490639180913
 30
0.0
 40
15.0
  1
steel
  0
ENDBLK
  5
2134
  8
0
  0
BLOCK
  8
0
  2
*U380
 70
     1
 10
0.0
 20
0.0
 30
0.0
  3
*U380
  1

  0
TEXT
  5
2137
  8
0
 10
6758.7067852180161935
 20
-1153.0398136992980653
 30
0.0
 40
20.0
  1
10/2020
  0
ENDBLK
  5
2138
  8
0
  0
BLOCK
  8
0
  2
*U381
 70
     1
 10
0.0
 20
0.0
 30
0.0
  3
*U381
  1

  0
TEXT
  5
213B
  8
0
 10
6913.7477687559248807
 20
-21.003229271015929
 30
0.0
 40
20.0
  1
mm
  0
TEXT
  5
213C
  8
0
 10
6887.0811020892579108
 20
-54.3365626043492611
 30
0.0
 40
20.0
  1
[
  0
TEXT
  5
213D
  8
0
 10
6900.414435422590941
 20
-54.3365626043492611
 30
0.0
 40
20.0
  1
inch
  0
TEXT
  5
213E
  8
0
 10
6967.0811020892588203
 20
-54.3365626043492611
 30
0.0
 40
20.0
  1
]
  0
ENDBLK
  5
213F
  8
0
  0
BLOCK
  8
0
  2
*U382
 70
     1
 10
0.0
 20
0.0
 30
0.0
  3
*U382
  1

  0
TEXT
  5
2142
  8
0
 10
6650.1572366616774161
 20
-974.5852676629779126
 30
0.0
 40
12.0
  1
This template file is meant to be a guideline
  0
TEXT
  5
2143
  8
0
 10
6650.1572366616774161
 20
-994.5852676629775715
 30
0.0
 40
12.0
  1
and must be compared with the actual product
  0
TEXT
  5
2144
  8
0
 10
6650.1572366616774161
 20
-1014.5852676629780262
 30
0.0
 40
12.0
  1
which should always be present to ensure a
  0
TEXT
  5
2145
  8
0
 10
6650.1572366616774161
 20
-1034.5852676629770031
 30
0.0
 40
12.0
  1
perfect cut.Testing on a scrap piece before
  0
TEXT
  5
2146
  8
0
 10
6650.1572366616774161
 20
-1054.5852676629770031
 30
0.0
 40
12.0
  1
the final cut is always recommended.
  0
TEXT
  5
2147
  8
0
 10
6650.1572366616774161
 20
-1074.5852676629770031
 30
0.0
 40
12.0
  1
UKINOX IS NOT RESPONSIBLE FOR ANY IMPROPERLY
  0
TEXT
  5
2148
  8
0
 10
6650.1572366616774161
 20
-1094.5852676629770031
 30
0.0
 40
12.0
  1
CUT COUNTERTOP OR AN IMPROPER INSTALLATION.
  0
ENDBLK
  5
2149
  8
0
  0
BLOCK
  8
0
  2
*U383
 70
     1
 10
0.0
 20
0.0
 30
0.0
  3
*U383
  1

  0
TEXT
  5
214C
  8
0
 62
     1
 10
6535.2910408698453466
 20
-117.3585305118754007
 30
0.0
 40
20.0
  1
zero reveal cut-out
  0
ENDBLK
  5
214D
  8
0
  0
BLOCK
  8
0
  2
*D384
 70
     1
 10
0.0
 20
0.0
 30
0.0
  3
*D384
  1

  0
LINE
  5
2150
  8
0
 62
     0
 10
5769.0301658682228663
 20
-1445.0336101283749031
 30
0.0
 11
6530.0297957083057554
 21
-1445.0336101283749031
 31
0.0
  0
SOLID
  5
2151
  8
0
 62
     0
 10
5769.0301658682228663
 20
-1442.5336101283739936
 30
0.0
 11
5769.0301658682228663
 21
-1447.5336101283739936
 31
0.0
 12
5754.0301658682210473
 22
-1445.0336101283749031
 32
0.0
 13
5754.0301658682210473
 23
-1445.0336101283749031
 33
0.0
  0
SOLID
  5
2152
  8
0
 62
     0
 10
6530.0297957083057554
 20
-1442.5336101283739936
 30
0.0
 11
6530.0297957083057554
 21
-1447.5336101283739936
 31
0.0
 12
6545.0297957083048459
 22
-1445.0336101283749031
 32
0.0
 13
6545.0297957083048459
 23
-1445.0336101283749031
 33
0.0
  0
INSERT
  5
2153
  8
0
  2
*U385
 10
0.0
 20
0.0
 30
0.0
  0
POINT
  5
2154
  8
DEFPOINTS
 62
     0
 10
5754.0301658682210473
 20
-1462.7554172443610696
 30
0.0
  0
POINT
  5
2155
  8
DEFPOINTS
 62
     0
 10
6545.0297957083048459
 20
-1480.540121957114934
 30
0.0
  0
POINT
  5
2156
  8
DEFPOINTS
 62
     0
 10
6545.0297957083048459
 20
-1445.0336101283749031
 30
0.0
  0
ENDBLK
  5
2157
  8
0
  0
BLOCK
  8
0
  2
*U385
 70
     1
 10
0.0
 20
0.0
 30
0.0
  3
*U385
  1

  0
TEXT
  5
2AF5
  8
0
 62
     0
 10
6132.0299807882638561
 20
-1435.0336101283739936
 30
0.0
 40
15.0
  1
791
  0
ENDBLK
  5
2AF7
  8
0
  0
BLOCK
  8
0
  2
*D386
 70
     1
 10
0.0
 20
0.0
 30
0.0
  3
*D386
  1

  0
LINE
  5
215A
  8
0
 62
     0
 10
5714.6637816861757528
 20
-1484.1382240512029966
 30
0.0
 11
5714.6637816861757528
 21
-1890.1382240512020871
 31
0.0
  0
SOLID
  5
215B
  8
0
 62
     0
 10
5712.1637816861775718
 20
-1484.1382240512029966
 30
0.0
 11
5717.1637816861775718
 21
-1484.1382240512029966
 31
0.0
 12
5714.6637816861757528
 22
-1469.1382240512029966
 32
0.0
 13
5714.6637816861757528
 23
-1469.1382240512029966
 33
0.0
  0
SOLID
  5
215C
  8
0
 62
     0
 10
5712.1637816861775718
 20
-1890.1382240512020871
 30
0.0
 11
5717.1637816861775718
 21
-1890.1382240512020871
 31
0.0
 12
5714.6637816861757528
 22
-1905.1382240512029966
 32
0.0
 13
5714.6637816861757528
 23
-1905.1382240512029966
 33
0.0
  0
INSERT
  5
215D
  8
0
  2
*U387
 10
0.0
 20
0.0
 30
0.0
  0
POINT
  5
215E
  8
DEFPOINTS
 62
     0
 10
5765.5301658682237758
 20
-1469.1382240512029966
 30
0.0
  0
POINT
  5
215F
  8
DEFPOINTS
 62
     0
 10
5765.5301658682237758
 20
-1905.1382240512029966
 30
0.0
  0
POINT
  5
2160
  8
DEFPOINTS
 62
     0
 10
5714.6637816861757528
 20
-1905.1382240512029966
 30
0.0
  0
ENDBLK
  5
2161
  8
0
  0
BLOCK
  8
0
  2
*U387
 70
     1
 10
0.0
 20
0.0
 30
0.0
  3
*U387
  1

  0
TEXT
  5
2AF9
  8
0
 62
     0
 10
5704.6637816861775718
 20
-1707.1382240512020871
 30
0.0
 40
15.0
  1
436
 50
90.0
  0
ENDBLK
  5
2AFB
  8
0
  0
BLOCK
  8
0
  2
*D388
 70
     1
 10
0.0
 20
0.0
 30
0.0
  3
*D388
  1

  0
LINE
  5
21E5
  8
0
 62
     0
 10
5766.4702050925516232
 20
-2864.6845395288219152
 30
0.0
 11
6563.4698349326372409
 21
-2864.6845395288219152
 31
0.0
  0
SOLID
  5
21E6
  8
0
 62
     0
 10
5766.4702050925516232
 20
-2862.1845395288219152
 30
0.0
 11
5766.4702050925516232
 21
-2867.1845395288210057
 31
0.0
 12
5751.4702050925534422
 22
-2864.6845395288219152
 32
0.0
 13
5751.4702050925534422
 23
-2864.6845395288219152
 33
0.0
  0
SOLID
  5
21E7
  8
0
 62
     0
 10
6563.4698349326372409
 20
-2862.1845395288219152
 30
0.0
 11
6563.4698349326372409
 21
-2867.1845395288210057
 31
0.0
 12
6578.4698349326363314
 22
-2864.6845395288219152
 32
0.0
 13
6578.4698349326363314
 23
-2864.6845395288219152
 33
0.0
  0
INSERT
  5
21E8
  8
0
  2
*U389
 10
0.0
 20
0.0
 30
0.0
  0
POINT
  5
21E9
  8
DEFPOINTS
 62
     0
 10
5751.4702050925534422
 20
-2882.4063466448078543
 30
0.0
  0
POINT
  5
21EA
  8
DEFPOINTS
 62
     0
 10
6578.4698349326363314
 20
-2900.1910513575608093
 30
0.0
  0
POINT
  5
21EB
  8
DEFPOINTS
 62
     0
 10
6578.4698349326363314
 20
-2864.6845395288219152
 30
0.0
  0
ENDBLK
  5
21C5
  8
0
  0
BLOCK
  8
0
  2
*U389
 70
     1
 10
0.0
 20
0.0
 30
0.0
  3
*U389
  1

  0
TEXT
  5
2B1D
  8
0
 62
     0
 10
6144.970020012594432
 20
-2854.6845395288219152
 30
0.0
 40
15.0
  1
827
  0
ENDBLK
  5
2B1F
  8
0
  0
BLOCK
  8
0
  2
*D390
 70
     1
 10
0.0
 20
0.0
 30
0.0
  3
*D390
  1

  0
LINE
  5
21EC
  8
0
 62
     0
 10
5712.1038209105063288
 20
-2903.7891534516488719
 30
0.0
 11
5712.1038209105063288
 21
-3452.7891534516488719
 31
0.0
  0
SOLID
  5
21ED
  8
0
 62
     0
 10
5709.6038209105072383
 20
-2903.7891534516488719
 30
0.0
 11
5714.6038209105072383
 21
-2903.7891534516488719
 31
0.0
 12
5712.1038209105063288
 22
-2888.7891534516497813
 32
0.0
 13
5712.1038209105063288
 23
-2888.7891534516497813
 33
0.0
  0
SOLID
  5
21EE
  8
0
 62
     0
 10
5709.6038209105072383
 20
-3452.7891534516488719
 30
0.0
 11
5714.6038209105072383
 21
-3452.7891534516488719
 31
0.0
 12
5712.1038209105063288
 22
-3467.7891534516497813
 32
0.0
 13
5712.1038209105063288
 23
-3467.7891534516497813
 33
0.0
  0
INSERT
  5
21EF
  8
0
  2
*U391
 10
0.0
 20
0.0
 30
0.0
  0
POINT
  5
21F0
  8
DEFPOINTS
 62
     0
 10
5762.9702050925534422
 20
-2888.7891534516497813
 30
0.0
  0
POINT
  5
21F1
  8
DEFPOINTS
 62
     0
 10
5762.9702050925534422
 20
-3467.7891534516497813
 30
0.0
  0
POINT
  5
21F2
  8
DEFPOINTS
 62
     0
 10
5712.1038209105063288
 20
-3467.7891534516497813
 30
0.0
  0
ENDBLK
  5
21CF
  8
0
  0
BLOCK
  8
0
  2
*U391
 70
     1
 10
0.0
 20
0.0
 30
0.0
  3
*U391
  1

  0
TEXT
  5
2B21
  8
0
 62
     0
 10
5702.1038209105081478
 20
-3198.2891534516479624
 30
0.0
 40
15.0
  1
579
 50
90.0
  0
ENDBLK
  5
2B23
  8
0
  0
BLOCK
  8
0
  2
*U392
 70
     1
 10
0.0
 20
0.0
 30
0.0
  3
*U392
  1

  0
TEXT
  5
2209
  8
0
 10
3585.0515180150009655
 20
-1042.4231291866519769
 30
0.0
 40
17.0
  1
TOPZERO
  0
TEXT
  5
220A
  8
0
 10
3585.0515180150009655
 20
-1070.7564625199859165
 30
0.0
 40
17.0
  1
www.topzero.com
  0
ENDBLK
  5
220B
  8
0
  0
BLOCK
  8
0
  2
*U393
 70
     1
 10
0.0
 20
0.0
 30
0.0
  3
*U393
  1

  0
TEXT
  5
220E
  8
0
 10
4110.4723054436462917
 20
-1029.8389839146439044
 30
0.0
 40
18.0
  1
36''  LARGEEQUAL DOUBLE BOWL
  0
ENDBLK
  5
220F
  8
0
  0
BLOCK
  8
0
  2
*U394
 70
     1
 10
0.0
 20
0.0
 30
0.0
  3
*U394
  1

  0
TEXT
  5
2212
  8
0
 10
3927.607083253080873
 20
-1137.3444484628419104
 30
0.0
 40
15.0
  1
Stainless
  0
TEXT
  5
2213
  8
0
 10
3927.607083253080873
 20
-1162.3444484628419104
 30
0.0
 40
15.0
  1
steel
  0
ENDBLK
  5
2214
  8
0
  0
BLOCK
  8
0
  2
*U395
 70
     1
 10
0.0
 20
0.0
 30
0.0
  3
*U395
  1

  0
TEXT
  5
2217
  8
0
 10
4333.2683554490486131
 20
-1156.6015594309760672
 30
0.0
 40
21.9959999999999987
  1
TZ M444.55
  0
ENDBLK
  5
2218
  8
0
  0
BLOCK
  8
0
  2
*U396
 70
     1
 10
0.0
 20
0.0
 30
0.0
  3
*U396
  1

  0
TEXT
  5
221B
  8
0
 10
4804.1530193771650374
 20
-1153.0398130982221119
 30
0.0
 40
20.0
  1
10/2020
  0
ENDBLK
  5
221C
  8
0
  0
BLOCK
  8
0
  2
*U397
 70
     1
 10
0.0
 20
0.0
 30
0.0
  3
*U397
  1

  0
TEXT
  5
221F
  8
0
 10
4959.1940029150737246
 20
-21.0032286699399684
 30
0.0
 40
20.0
  1
mm
  0
TEXT
  5
2220
  8
0
 10
4932.5273362484085737
 20
-54.3365620032732792
 30
0.0
 40
20.0
  1
[
  0
TEXT
  5
2221
  8
0
 10
4945.8606695817397849
 20
-54.3365620032732792
 30
0.0
 40
20.0
  1
inch
  0
TEXT
  5
2222
  8
0
 10
5012.5273362484085737
 20
-54.3365620032732792
 30
0.0
 40
20.0
  1
]
  0
ENDBLK
  5
2223
  8
0
  0
BLOCK
  8
0
  2
*U398
 70
     1
 10
0.0
 20
0.0
 30
0.0
  3
*U398
  1

  0
TEXT
  5
2226
  8
0
 10
4695.60347082082626
 20
-974.5852670619015043
 30
0.0
 40
12.0
  1
This template file is meant to be a guideline
  0
TEXT
  5
2227
  8
0
 10
4695.60347082082626
 20
-994.5852670619007085
 30
0.0
 40
12.0
  1
and must be compared with the actual product
  0
TEXT
  5
2228
  8
0
 10
4695.60347082082626
 20
-1014.5852670619010496
 30
0.0
 40
12.0
  1
which should always be present to ensure a
  0
TEXT
  5
2229
  8
0
 10
4695.60347082082626
 20
-1034.5852670619019591
 30
0.0
 40
12.0
  1
perfect cut.Testing on a scrap piece before
  0
TEXT
  5
222A
  8
0
 10
4695.60347082082626
 20
-1054.5852670619019591
 30
0.0
 40
12.0
  1
the final cut is always recommended.
  0
TEXT
  5
222B
  8
0
 10
4695.60347082082626
 20
-1074.5852670619019591
 30
0.0
 40
12.0
  1
UKINOX IS NOT RESPONSIBLE FOR ANY IMPROPERLY
  0
TEXT
  5
222C
  8
0
 10
4695.60347082082626
 20
-1094.5852670619010496
 30
0.0
 40
12.0
  1
CUT COUNTERTOP OR AN IMPROPER INSTALLATION.
  0
ENDBLK
  5
222D
  8
0
  0
BLOCK
  8
0
  2
*U399
 70
     1
 10
0.0
 20
0.0
 30
0.0
  3
*U399
  1

  0
TEXT
  5
2230
  8
0
 62
     1
 10
3657.0032326078680853
 20
-291.3251889885600008
 30
0.0
 40
15.0
  1
20
 50
89.9999999999999858
  0
TEXT
  5
2231
  8
0
 62
     1
 10
3647.7532326078680853
 20
-259.3251889885601145
 30
0.0
 40
10.5
  1
1
 50
89.9999999999999858
  0
LINE
  5
2232
  8
0
 62
     1
 10
3649.5032326078680853
 20
-261.0751889885601145
 30
0.0
 11
3649.5032326078680853
 21
-254.0751889885600008
 31
0.0
  0
TEXT
  5
2233
  8
0
 62
     1
 10
3661.7532326078680853
 20
-261.0751889885601145
 30
0.0
 40
10.5
  1
8
 50
89.9999999999999858
  0
TEXT
  5
2234
  8
0
 62
     1
 10
3657.005482607868089
 20
-249.700188988560086
 30
0.0
 40
15.0045000000000002
  1
"
 50
89.9999999999999858
  0
ENDBLK
  5
2235
  8
0
  0
BLOCK
  8
0
  2
*U400
 70
     1
 10
0.0
 20
0.0
 30
0.0
  3
*U400
  1

  0
TEXT
  5
2238
  8
0
 62
     1
 10
4194.0526755805612993
 20
-16.3410020922265105
 30
0.0
 40
15.0
  1
36
  0
TEXT
  5
2239
  8
0
 62
     1
 10
4228.8026755805612993
 20
-7.0910020922265362
 30
0.0
 40
10.5
  1
1
  0
LINE
  5
223A
  8
0
 62
     1
 10
4227.0526755805612993
 20
-8.8410020922265335
 30
0.0
 11
4234.0526755805612993
 21
-8.8410020922265389
 31
0.0
  0
TEXT
  5
223B
  8
0
 62
     1
 10
4227.0526755805612993
 20
-21.0910020922265389
 30
0.0
 40
10.5
  1
8
  0
TEXT
  5
223C
  8
0
 62
     1
 10
4238.4276755805612993
 20
-16.343252092226539
 30
0.0
 40
15.0045000000000002
  1
"
  0
ENDBLK
  5
223D
  8
0
  0
BLOCK
  8
0
  2
*D401
 70
     1
 10
0.0
 20
0.0
 30
0.0
  3
*D401
  1

  0
LINE
  5
2240
  8
0
 62
     0
 10
3680.6884281210218433
 20
-78.9441373710133121
 30
0.0
 11
3680.6884281210218433
 21
-560.9441373710133121
 31
0.0
  0
SOLID
  5
2241
  8
0
 62
     0
 10
3678.1884281210218433
 20
-78.9441373710133121
 30
0.0
 11
3683.1884281210218433
 21
-78.9441373710133121
 31
0.0
 12
3680.6884281210218433
 22
-63.9441373710133192
 32
0.0
 13
3680.6884281210218433
 23
-63.9441373710133192
 33
0.0
  0
SOLID
  5
2242
  8
0
 62
     0
 10
3678.1884281210218433
 20
-560.9441373710133121
 30
0.0
 11
3683.1884281210218433
 21
-560.9441373710133121
 31
0.0
 12
3680.6884281210218433
 22
-575.9441373710131984
 32
0.0
 13
3680.6884281210218433
 23
-575.9441373710131984
 33
0.0
  0
INSERT
  5
2243
  8
0
  2
*U402
 10
0.0
 20
0.0
 30
0.0
  0
POINT
  5
2244
  8
DEFPOINTS
 62
     0
 10
3697.1586723742520917
 20
-63.9441373710133192
 30
0.0
  0
POINT
  5
2245
  8
DEFPOINTS
 62
     0
 10
3714.7192520533740208
 20
-575.9441373710131984
 30
0.0
  0
POINT
  5
2246
  8
DEFPOINTS
 62
     0
 10
3680.6884281210218433
 20
-575.9441373710131984
 30
0.0
  0
ENDBLK
  5
2247
  8
0
  0
BLOCK
  8
0
  2
*U402
 70
     1
 10
0.0
 20
0.0
 30
0.0
  3
*U402
  1

  0
TEXT
  5
224A
  8
0
 62
     0
 10
3670.6884281210218433
 20
-337.4441373710126868
 30
0.0
 40
15.0
  1
512
 50
90.0
  0
ENDBLK
  5
224B
  8
0
  0
BLOCK
  8
0
  2
*D403
 70
     1
 10
0.0
 20
0.0
 30
0.0
  3
*D403
  1

  0
LINE
  5
224E
  8
0
 62
     0
 10
3718.2192520533758398
 20
-46.5165376784898328
 30
0.0
 11
4606.219252053373566
 21
-46.5165376784898328
 31
0.0
  0
SOLID
  5
224F
  8
0
 62
     0
 10
3718.2192520533758398
 20
-44.0165376784898328
 30
0.0
 11
3718.2192520533758398
 21
-49.0165376784898328
 31
0.0
 12
3703.2192520533758398
 22
-46.5165376784898328
 32
0.0
 13
3703.2192520533758398
 23
-46.5165376784898328
 33
0.0
  0
SOLID
  5
2250
  8
0
 62
     0
 10
4606.219252053373566
 20
-44.0165376784898328
 30
0.0
 11
4606.219252053373566
 21
-49.0165376784898328
 31
0.0
 12
4621.219252053373566
 22
-46.5165376784898328
 32
0.0
 13
4621.219252053373566
 23
-46.5165376784898328
 33
0.0
  0
INSERT
  5
2251
  8
0
  2
*U404
 10
0.0
 20
0.0
 30
0.0
  0
POINT
  5
2252
  8
DEFPOINTS
 62
     0
 10
3703.2192520533758398
 20
-75.4441373710133121
 30
0.0
  0
POINT
  5
2253
  8
DEFPOINTS
 62
     0
 10
4621.219252053373566
 20
-56.4069314788721385
 30
0.0
  0
POINT
  5
2254
  8
DEFPOINTS
 62
     0
 10
4621.219252053373566
 20
-46.5165376784898328
 30
0.0
  0
ENDBLK
  5
2255
  8
0
  0
BLOCK
  8
0
  2
*U404
 70
     1
 10
0.0
 20
0.0
 30
0.0
  3
*U404
  1

  0
TEXT
  5
2258
  8
0
 62
     0
 10
4144.7192520533762945
 20
-36.5165376784898328
 30
0.0
 40
15.0
  1
918
  0
ENDBLK
  5
2259
  8
0
  0
BLOCK
  8
0
  2
*U405
 70
     1
 10
0.0
 20
0.0
 30
0.0
  3
*U405
  1

  0
TEXT
  5
225C
  8
0
 62
     1
 10
6535.2910408698453466
 20
-117.3585305118754007
 30
0.0
 40
20.0
  1
zero reveal cut-out
  0
ENDBLK
  5
225D
  8
0
  0
BLOCK
  8
0
  2
*D406
 70
     1
 10
0.0
 20
0.0
 30
0.0
  3
*D406
  1

  0
LINE
  5
235F
  8
0
 62
     0
 10
1870.3780060120009239
 20
-57.4200215358359713
 30
0.0
 11
2303.378006011999787
 21
-57.4200215358359713
 31
0.0
  0
SOLID
  5
2360
  8
0
 62
     0
 10
1870.3780060120009239
 20
-54.9200215358359713
 30
0.0
 11
1870.3780060120009239
 21
-59.9200215358359713
 31
0.0
 12
1855.3780060120009239
 22
-57.4200215358359713
 32
0.0
 13
1855.3780060120009239
 23
-57.4200215358359713
 33
0.0
  0
SOLID
  5
2361
  8
0
 62
     0
 10
2303.378006011999787
 20
-54.9200215358359713
 30
0.0
 11
2303.378006011999787
 21
-59.9200215358359713
 31
0.0
 12
2318.378006011999787
 22
-57.4200215358359713
 32
0.0
 13
2318.378006011999787
 23
-57.4200215358359713
 33
0.0
  0
INSERT
  5
2362
  8
0
  2
*U407
 10
0.0
 20
0.0
 30
0.0
  0
POINT
  5
2363
  8
DEFPOINTS
 62
     0
 10
1855.3780060120009239
 20
-86.3476212283594577
 30
0.0
  0
POINT
  5
2364
  8
DEFPOINTS
 62
     0
 10
2318.378006011999787
 20
-67.3104153362182842
 30
0.0
  0
POINT
  5
2365
  8
DEFPOINTS
 62
     0
 10
2318.378006011999787
 20
-57.4200215358359713
 30
0.0
  0
ENDBLK
  5
22C1
  8
0
  0
BLOCK
  8
0
  2
*U407
 70
     1
 10
0.0
 20
0.0
 30
0.0
  3
*U407
  1

  0
TEXT
  5
2B4D
  8
0
 62
     0
 10
2066.8780060120011512
 20
-47.4200215358359713
 30
0.0
 40
15.0
  1
463
  0
ENDBLK
  5
2B4F
  8
0
  0
BLOCK
  8
0
  2
*D408
 70
     1
 10
0.0
 20
0.0
 30
0.0
  3
*D408
  1

  0
LINE
  5
2370
  8
0
 62
     0
 10
1832.8471820796460179
 20
-89.8476212283594293
 30
0.0
 11
1832.8471820796460179
 21
-368.8476212283595146
 31
0.0
  0
SOLID
  5
2371
  8
0
 62
     0
 10
1830.3471820796469274
 20
-89.8476212283594293
 30
0.0
 11
1835.3471820796469274
 21
-89.8476212283594293
 31
0.0
 12
1832.8471820796460179
 22
-74.8476212283594435
 32
0.0
 13
1832.8471820796460179
 23
-74.8476212283594435
 33
0.0
  0
SOLID
  5
2372
  8
0
 62
     0
 10
1830.3471820796469274
 20
-368.8476212283595146
 30
0.0
 11
1835.3471820796469274
 21
-368.8476212283595146
 31
0.0
 12
1832.8471820796460179
 22
-383.8476212283595146
 32
0.0
 13
1832.8471820796460179
 23
-383.8476212283595146
 33
0.0
  0
INSERT
  5
2373
  8
0
  2
*U409
 10
0.0
 20
0.0
 30
0.0
  0
POINT
  5
2374
  8
DEFPOINTS
 62
     0
 10
1849.3174263328769484
 20
-74.8476212283594435
 30
0.0
  0
POINT
  5
2375
  8
DEFPOINTS
 62
     0
 10
1866.8780060119991049
 20
-383.8476212283595146
 30
0.0
  0
POINT
  5
2376
  8
DEFPOINTS
 62
     0
 10
1832.8471820796460179
 20
-383.8476212283595146
 30
0.0
  0
ENDBLK
  5
22CB
  8
0
  0
BLOCK
  8
0
  2
*U409
 70
     1
 10
0.0
 20
0.0
 30
0.0
  3
*U409
  1

  0
TEXT
  5
2B51
  8
0
 62
     0
 10
1822.8471820796460179
 20
-248.097621228359202
 30
0.0
 40
15.0
  1
309
 50
90.0
  0
ENDBLK
  5
2B53
  8
0
  0
BLOCK
  8
0
  2
*U410
 70
     1
 10
0.0
 20
0.0
 30
0.0
  3
*U410
  1

  0
TEXT
  5
22DC
  8
0
 10
3585.0515180150009655
 20
-1042.4231291866519769
 30
0.0
 40
17.0
  1
TOPZERO
  0
TEXT
  5
22DD
  8
0
 10
3585.0515180150009655
 20
-1070.7564625199859165
 30
0.0
 40
17.0
  1
www.topzero.com
  0
ENDBLK
  5
22DE
  8
0
  0
BLOCK
  8
0
  2
*U411
 70
     1
 10
0.0
 20
0.0
 30
0.0
  3
*U411
  1

  0
TEXT
  5
22E1
  8
0
 10
4110.4723054436462917
 20
-1029.8389839146439044
 30
0.0
 40
18.0
  1
36''  LARGEEQUAL DOUBLE BOWL
  0
ENDBLK
  5
22E2
  8
0
  0
BLOCK
  8
0
  2
*U412
 70
     1
 10
0.0
 20
0.0
 30
0.0
  3
*U412
  1

  0
TEXT
  5
22E5
  8
0
 10
3927.607083253080873
 20
-1137.3444484628419104
 30
0.0
 40
15.0
  1
Stainless
  0
TEXT
  5
22E6
  8
0
 10
3927.607083253080873
 20
-1162.3444484628419104
 30
0.0
 40
15.0
  1
steel
  0
ENDBLK
  5
22E7
  8
0
  0
BLOCK
  8
0
  2
*U413
 70
     1
 10
0.0
 20
0.0
 30
0.0
  3
*U413
  1

  0
TEXT
  5
22EA
  8
0
 10
4333.2683554490486131
 20
-1156.6015594309760672
 30
0.0
 40
21.9959999999999987
  1
TZ M444.55
  0
ENDBLK
  5
22EB
  8
0
  0
BLOCK
  8
0
  2
*U414
 70
     1
 10
0.0
 20
0.0
 30
0.0
  3
*U414
  1

  0
TEXT
  5
22EE
  8
0
 10
4804.1530193771650374
 20
-1153.0398130982221119
 30
0.0
 40
20.0
  1
10/2020
  0
ENDBLK
  5
22EF
  8
0
  0
BLOCK
  8
0
  2
*U415
 70
     1
 10
0.0
 20
0.0
 30
0.0
  3
*U415
  1

  0
TEXT
  5
22F2
  8
0
 10
4959.1940029150737246
 20
-21.0032286699399684
 30
0.0
 40
20.0
  1
mm
  0
TEXT
  5
22F3
  8
0
 10
4932.5273362484085737
 20
-54.3365620032732792
 30
0.0
 40
20.0
  1
[
  0
TEXT
  5
22F4
  8
0
 10
4945.8606695817397849
 20
-54.3365620032732792
 30
0.0
 40
20.0
  1
inch
  0
TEXT
  5
22F5
  8
0
 10
5012.5273362484085737
 20
-54.3365620032732792
 30
0.0
 40
20.0
  1
]
  0
ENDBLK
  5
22F6
  8
0
  0
BLOCK
  8
0
  2
*U416
 70
     1
 10
0.0
 20
0.0
 30
0.0
  3
*U416
  1

  0
TEXT
  5
22F9
  8
0
 10
4695.60347082082626
 20
-974.5852670619015043
 30
0.0
 40
12.0
  1
This template file is meant to be a guideline
  0
TEXT
  5
22FA
  8
0
 10
4695.60347082082626
 20
-994.5852670619007085
 30
0.0
 40
12.0
  1
and must be compared with the actual product
  0
TEXT
  5
22FB
  8
0
 10
4695.60347082082626
 20
-1014.5852670619010496
 30
0.0
 40
12.0
  1
which should always be present to ensure a
  0
TEXT
  5
22FC
  8
0
 10
4695.60347082082626
 20
-1034.5852670619019591
 30
0.0
 40
12.0
  1
perfect cut.Testing on a scrap piece before
  0
TEXT
  5
22FD
  8
0
 10
4695.60347082082626
 20
-1054.5852670619019591
 30
0.0
 40
12.0
  1
the final cut is always recommended.
  0
TEXT
  5
22FE
  8
0
 10
4695.60347082082626
 20
-1074.5852670619019591
 30
0.0
 40
12.0
  1
UKINOX IS NOT RESPONSIBLE FOR ANY IMPROPERLY
  0
TEXT
  5
22FF
  8
0
 10
4695.60347082082626
 20
-1094.5852670619010496
 30
0.0
 40
12.0
  1
CUT COUNTERTOP OR AN IMPROPER INSTALLATION.
  0
ENDBLK
  5
2300
  8
0
  0
BLOCK
  8
0
  2
*U417
 70
     1
 10
0.0
 20
0.0
 30
0.0
  3
*U417
  1

  0
TEXT
  5
2303
  8
0
 62
     1
 10
3657.0032326078680853
 20
-291.3251889885600008
 30
0.0
 40
15.0
  1
20
 50
89.9999999999999858
  0
TEXT
  5
2304
  8
0
 62
     1
 10
3647.7532326078680853
 20
-259.3251889885601145
 30
0.0
 40
10.5
  1
1
 50
89.9999999999999858
  0
LINE
  5
2305
  8
0
 62
     1
 10
3649.5032326078680853
 20
-261.0751889885601145
 30
0.0
 11
3649.5032326078680853
 21
-254.0751889885600008
 31
0.0
  0
TEXT
  5
2306
  8
0
 62
     1
 10
3661.7532326078680853
 20
-261.0751889885601145
 30
0.0
 40
10.5
  1
8
 50
89.9999999999999858
  0
TEXT
  5
2307
  8
0
 62
     1
 10
3657.005482607868089
 20
-249.700188988560086
 30
0.0
 40
15.0045000000000002
  1
"
 50
89.9999999999999858
  0
ENDBLK
  5
2308
  8
0
  0
BLOCK
  8
0
  2
*U418
 70
     1
 10
0.0
 20
0.0
 30
0.0
  3
*U418
  1

  0
TEXT
  5
230B
  8
0
 62
     1
 10
4194.0526755805612993
 20
-16.3410020922265105
 30
0.0
 40
15.0
  1
36
  0
TEXT
  5
230C
  8
0
 62
     1
 10
4228.8026755805612993
 20
-7.0910020922265362
 30
0.0
 40
10.5
  1
1
  0
LINE
  5
230D
  8
0
 62
     1
 10
4227.0526755805612993
 20
-8.8410020922265335
 30
0.0
 11
4234.0526755805612993
 21
-8.8410020922265389
 31
0.0
  0
TEXT
  5
230E
  8
0
 62
     1
 10
4227.0526755805612993
 20
-21.0910020922265389
 30
0.0
 40
10.5
  1
8
  0
TEXT
  5
230F
  8
0
 62
     1
 10
4238.4276755805612993
 20
-16.343252092226539
 30
0.0
 40
15.0045000000000002
  1
"
  0
ENDBLK
  5
2310
  8
0
  0
BLOCK
  8
0
  2
*D419
 70
     1
 10
0.0
 20
0.0
 30
0.0
  3
*D419
  1

  0
LINE
  5
2313
  8
0
 62
     0
 10
3680.6884281210218433
 20
-78.9441373710133121
 30
0.0
 11
3680.6884281210218433
 21
-560.9441373710133121
 31
0.0
  0
SOLID
  5
2314
  8
0
 62
     0
 10
3678.1884281210218433
 20
-78.9441373710133121
 30
0.0
 11
3683.1884281210218433
 21
-78.9441373710133121
 31
0.0
 12
3680.6884281210218433
 22
-63.9441373710133192
 32
0.0
 13
3680.6884281210218433
 23
-63.9441373710133192
 33
0.0
  0
SOLID
  5
2315
  8
0
 62
     0
 10
3678.1884281210218433
 20
-560.9441373710133121
 30
0.0
 11
3683.1884281210218433
 21
-560.9441373710133121
 31
0.0
 12
3680.6884281210218433
 22
-575.9441373710131984
 32
0.0
 13
3680.6884281210218433
 23
-575.9441373710131984
 33
0.0
  0
INSERT
  5
2316
  8
0
  2
*U420
 10
0.0
 20
0.0
 30
0.0
  0
POINT
  5
2317
  8
DEFPOINTS
 62
     0
 10
3697.1586723742520917
 20
-63.9441373710133192
 30
0.0
  0
POINT
  5
2318
  8
DEFPOINTS
 62
     0
 10
3714.7192520533740208
 20
-575.9441373710131984
 30
0.0
  0
POINT
  5
2319
  8
DEFPOINTS
 62
     0
 10
3680.6884281210218433
 20
-575.9441373710131984
 30
0.0
  0
ENDBLK
  5
231A
  8
0
  0
BLOCK
  8
0
  2
*U420
 70
     1
 10
0.0
 20
0.0
 30
0.0
  3
*U420
  1

  0
TEXT
  5
231D
  8
0
 62
     0
 10
3670.6884281210218433
 20
-337.4441373710126868
 30
0.0
 40
15.0
  1
512
 50
90.0
  0
ENDBLK
  5
231E
  8
0
  0
BLOCK
  8
0
  2
*D421
 70
     1
 10
0.0
 20
0.0
 30
0.0
  3
*D421
  1

  0
LINE
  5
2321
  8
0
 62
     0
 10
3718.2192520533758398
 20
-46.5165376784898328
 30
0.0
 11
4606.219252053373566
 21
-46.5165376784898328
 31
0.0
  0
SOLID
  5
2322
  8
0
 62
     0
 10
3718.2192520533758398
 20
-44.0165376784898328
 30
0.0
 11
3718.2192520533758398
 21
-49.0165376784898328
 31
0.0
 12
3703.2192520533758398
 22
-46.5165376784898328
 32
0.0
 13
3703.2192520533758398
 23
-46.5165376784898328
 33
0.0
  0
SOLID
  5
2323
  8
0
 62
     0
 10
4606.219252053373566
 20
-44.0165376784898328
 30
0.0
 11
4606.219252053373566
 21
-49.0165376784898328
 31
0.0
 12
4621.219252053373566
 22
-46.5165376784898328
 32
0.0
 13
4621.219252053373566
 23
-46.5165376784898328
 33
0.0
  0
INSERT
  5
2324
  8
0
  2
*U422
 10
0.0
 20
0.0
 30
0.0
  0
POINT
  5
2325
  8
DEFPOINTS
 62
     0
 10
3703.2192520533758398
 20
-75.4441373710133121
 30
0.0
  0
POINT
  5
2326
  8
DEFPOINTS
 62
     0
 10
4621.219252053373566
 20
-56.4069314788721385
 30
0.0
  0
POINT
  5
2327
  8
DEFPOINTS
 62
     0
 10
4621.219252053373566
 20
-46.5165376784898328
 30
0.0
  0
ENDBLK
  5
2328
  8
0
  0
BLOCK
  8
0
  2
*U422
 70
     1
 10
0.0
 20
0.0
 30
0.0
  3
*U422
  1

  0
TEXT
  5
232B
  8
0
 62
     0
 10
4144.7192520533762945
 20
-36.5165376784898328
 30
0.0
 40
15.0
  1
918
  0
ENDBLK
  5
232C
  8
0
  0
BLOCK
  8
0
  2
*U423
 70
     1
 10
0.0
 20
0.0
 30
0.0
  3
*U423
  1

  0
TEXT
  5
232F
  8
0
 62
     1
 10
6535.2910408698453466
 20
-117.3585305118754007
 30
0.0
 40
20.0
  1
zero reveal cut-out
  0
ENDBLK
  5
2330
  8
0
  0
BLOCK
  8
0
  2
A$C01F752E5
 70
     0
 10
0.0
 20
0.0
 30
0.0
  3
A$C01F752E5
  1

  0
LINE
  5
2332
  8
0
 10
29.9999948804020313
 20
1290.0000043732788981
 30
0.0
 11
1729.9999948804008909
 21
1290.0000043732788981
 31
0.0
  0
LINE
  5
2333
  8
0
 10
29.9999948804020313
 20
1320.000004373280035
 30
0.0
 11
1729.9999948804008909
 21
1320.000004373280035
 31
0.0
  0
LINE
  5
2334
  8
0
 10
1729.9999948804008909
 20
1290.0000043732788981
 30
0.0
 11
1729.9999948804008909
 21
30.0000043732795802
 31
0.0
  0
LINE
  5
2335
  8
0
 10
1759.9999948803999814
 20
1290.0000043732788981
 30
0.0
 11
1759.9999948803999814
 21
30.0000043732795802
 31
0.0
  0
LINE
  5
2336
  8
0
 10
1729.9999948804008909
 20
30.0000043732795802
 30
0.0
 11
29.9999948804020313
 21
30.0000043732795802
 31
0.0
  0
LINE
  5
2337
  8
0
 10
1729.9999948804008909
 20
0.0000043732795802
 30
0.0
 11
29.9999948804020313
 21
0.0000043732795802
 31
0.0
  0
LINE
  5
2338
  8
0
 10
29.9999948804020313
 20
30.0000043732795802
 30
0.0
 11
29.9999948804020313
 21
1290.0000043732788981
 31
0.0
  0
LINE
  5
2339
  8
0
 10
-0.0000051195975175
 20
30.0000043732795802
 30
0.0
 11
-0.0000051195975175
 21
1290.0000043732788981
 31
0.0
  0
LINE
  5
233A
  8
0
 10
-0.0000051195975175
 20
1290.0000043732788981
 30
0.0
 11
-0.0000051195975175
 21
1320.000004373280035
 31
0.0
  0
LINE
  5
233B
  8
0
 10
29.9999948804020313
 20
1320.000004373280035
 30
0.0
 11
-0.0000051195975175
 21
1320.000004373280035
 31
0.0
  0
LINE
  5
233C
  8
0
 10
1759.9999948803999814
 20
1290.0000043732788981
 30
0.0
 11
1759.9999948804029373
 21
1320.000004373280035
 31
0.0
  0
LINE
  5
233D
  8
0
 10
1729.9999948804008909
 20
1320.000004373280035
 30
0.0
 11
1759.9999948804029373
 21
1320.000004373280035
 31
0.0
  0
LINE
  5
233E
  8
0
 10
1729.9999948804008909
 20
0.0000043732795802
 30
0.0
 11
1759.9999948804029373
 21
0.0000043732795802
 31
0.0
  0
LINE
  5
233F
  8
0
 10
1759.9999948803999814
 20
30.0000043732795802
 30
0.0
 11
1759.9999948804029373
 21
0.0000043732795802
 31
0.0
  0
LINE
  5
2340
  8
0
 10
29.9999948804020313
 20
0.0000043732795802
 30
0.0
 11
-0.0000051195975175
 21
0.0000043732795802
 31
0.0
  0
LINE
  5
2341
  8
0
 10
-0.0000051195975175
 20
30.0000043732795802
 30
0.0
 11
-0.0000051195975175
 21
0.0000043732795802
 31
0.0
  0
LINE
  5
2342
  8
0
 10
29.9999948804020313
 20
269.4993351898609717
 30
0.0
 11
332.5504244794796023
 21
269.4993351898609717
 31
0.0
  0
LINE
  5
2343
  8
0
 10
332.5504244794796023
 20
269.4993351898609717
 30
0.0
 11
332.5504244794796023
 21
30.0000043732795802
 31
0.0
  0
LINE
  5
2344
  8
0
 10
332.5504244794796023
 20
115.0048312359372034
 30
0.0
 11
1074.2544133176008927
 21
115.0048312359372034
 31
0.0
  0
LINE
  5
2345
  8
0
 10
1074.2544133176008927
 20
115.0048312359372034
 30
0.0
 11
1729.9999948804008909
 21
115.0048312359372034
 31
0.0
  0
LINE
  5
2346
  8
0
 10
602.9234873651221278
 20
115.0048312359372034
 30
0.0
 11
602.9234873651221278
 21
30.0000043732795802
 31
0.0
  0
LINE
  5
2347
  8
0
 10
1216.5870213302810043
 20
115.0048312359372034
 30
0.0
 11
1216.5870213302810043
 21
30.0000043732795802
 31
0.0
  0
LINE
  5
2348
  8
0
 10
1487.2522983284709426
 20
115.0048312359372034
 30
0.0
 11
1487.2522983284709426
 21
30.0000043732795802
 31
0.0
  0
LINE
  5
2349
  8
0
 10
332.5504244794796023
 20
269.4993351898609717
 30
0.0
 11
1729.9999948804008909
 21
269.4993351898609717
 31
0.0
  0
LINE
  5
234A
  8
0
 10
1114.2287010452539562
 20
269.4993351898609717
 30
0.0
 11
1114.2287010452539562
 21
115.0048312359372034
 31
0.0
  0
INSERT
  5
234B
  8
0
  2
*U410
 10
-3525.5048597835811961
 20
1219.5422399698350091
 30
0.0
  0
INSERT
  5
234C
  8
0
  2
*U411
 10
-3525.5048597835811961
 20
1219.5422399698350091
 30
0.0
  0
INSERT
  5
234D
  8
0
  2
*U412
 10
-3525.5048597835811961
 20
1219.5422399698350091
 30
0.0
  0
INSERT
  5
234E
  8
0
  2
*U413
 10
-3525.5048597835811961
 20
1219.5422399698350091
 30
0.0
  0
INSERT
  5
234F
  8
0
  2
*U414
 10
-3525.5048597835811961
 20
1219.5422399698350091
 30
0.0
  0
INSERT
  5
2350
  8
0
  2
*U415
 10
-3525.5048597835811961
 20
1219.5422399698350091
 30
0.0
  0
INSERT
  5
2351
  8
0
  2
*U416
 10
-3525.5048597835811961
 20
1219.5422399698350091
 30
0.0
  0
LINE
  5
2352
  8
0
 62
     1
 10
177.7143922697945868
 20
1155.5981025988210149
 30
0.0
 11
1095.714392269793052
 21
1155.5981025988210149
 31
0.0
  0
LINE
  5
2353
  8
0
 62
     1
 10
1095.714392269793052
 20
1155.5981025988210149
 30
0.0
 11
1095.7143922697900962
 21
643.5981025988214697
 31
0.0
  0
LINE
  5
2354
  8
0
 62
     1
 10
1095.714392269793052
 20
643.5981025988212423
 30
0.0
 11
177.7143922697927962
 21
643.5981025988212423
 31
0.0
  0
LINE
  5
2355
  8
0
 62
     1
 10
177.7143922697945868
 20
643.5981025988214697
 30
0.0
 11
177.7143922697945868
 21
1155.5981025988210149
 31
0.0
  0
DIMENSION
  5
2356
  8
0
 62
     1
  2
*D421
 10
1095.714392269793052
 20
1173.0257022913449418
 30
0.0
 11
636.7143922697922562
 21
1190.5257022913449418
 31
0.0
 12
-3525.5048597835811961
 22
1219.5422399698350091
 32
0.0
  3
ISO-25
 13
177.7143922697945868
 23
1144.0981025988210149
 33
0.0
 14
1095.714392269793052
 24
1163.1353084909619611
 34
0.0
  0
DIMENSION
  5
2357
  8
0
 62
     1
  2
*D419
 10
155.1835683374405903
 20
643.5981025988212423
 30
0.0
 11
137.6835683374405903
 21
899.5981025988221518
 31
0.0
 12
-3525.5048597835811961
 22
1219.5422399698350091
 32
0.0
  3
ISO-25
 13
171.6538125906704124
 23
1155.5981025988210149
 33
0.0
 14
189.2143922697927962
 24
643.5981025988212423
 34
0.0
 50
90.0
  0
INSERT
  5
2358
  8
0
  2
*U417
 10
-3525.5048597835811961
 20
1219.5422399698350091
 30
0.0
  0
INSERT
  5
2359
  8
0
  2
*U418
 10
-3525.5048597835811961
 20
1219.5422399698350091
 30
0.0
  0
LINE
  5
235A
  8
0
 62
     1
 10
1095.7143922697900962
 20
899.5981025988211286
 30
0.0
 11
1134.7990687848700873
 21
899.5981025988211286
 31
0.0
  0
POLYLINE
  5
235B
  8
0
 62
     1
 66
     1
 10
0.0
 20
0.0
 30
0.0
 70
     1
  0
VERTEX
  5
317F
  8
0
 62
     1
 10
1134.7990687848700873
 20
890.0984500215264461
 30
0.0
  0
VERTEX
  5
3180
  8
0
 62
     1
 10
1148.8569178903539978
 20
900.4462494861262485
 30
0.0
  0
VERTEX
  5
3181
  8
0
 62
     1
 10
1134.7990687848700873
 20
909.6876625288699643
 30
0.0
  0
SEQEND
  5
3182
  8
0
 62
     1
  0
INSERT
  5
235C
  8
0
 62
     1
  2
*U423
 10
-5374.3704900015845851
 20
1013.3939602862310494
 30
0.0
  0
ENDBLK
  5
235E
  8
0
  0
BLOCK
  8
0
  2
*U425
 70
     1
 10
0.0
 20
0.0
 30
0.0
  3
*U425
  1

  0
TEXT
  5
2368
  8
0
 62
     1
 10
6535.2910408698453466
 20
-117.3585305118754007
 30
0.0
 40
20.0
  1
zero reveal cut-out
  0
ENDBLK
  5
2369
  8
0
  0
BLOCK
  8
0
  2
*U426
 70
     1
 10
0.0
 20
0.0
 30
0.0
  3
*U426
  1

  0
TEXT
  5
2379
  8
0
 62
     1
 10
3657.0032326078680853
 20
-291.3251889885600008
 30
0.0
 40
15.0
  1
20
 50
89.9999999999999858
  0
TEXT
  5
237A
  8
0
 62
     1
 10
3647.7532326078680853
 20
-259.3251889885601145
 30
0.0
 40
10.5
  1
1
 50
89.9999999999999858
  0
LINE
  5
237B
  8
0
 62
     1
 10
3649.5032326078680853
 20
-261.0751889885601145
 30
0.0
 11
3649.5032326078680853
 21
-254.0751889885600008
 31
0.0
  0
TEXT
  5
237C
  8
0
 62
     1
 10
3661.7532326078680853
 20
-261.0751889885601145
 30
0.0
 40
10.5
  1
8
 50
89.9999999999999858
  0
TEXT
  5
237D
  8
0
 62
     1
 10
3657.005482607868089
 20
-249.700188988560086
 30
0.0
 40
15.0045000000000002
  1
"
 50
89.9999999999999858
  0
ENDBLK
  5
237E
  8
0
  0
BLOCK
  8
0
  2
*U427
 70
     1
 10
0.0
 20
0.0
 30
0.0
  3
*U427
  1

  0
TEXT
  5
2381
  8
0
 62
     1
 10
4194.0526755805612993
 20
-16.3410020922265105
 30
0.0
 40
15.0
  1
36
  0
TEXT
  5
2382
  8
0
 62
     1
 10
4228.8026755805612993
 20
-7.0910020922265362
 30
0.0
 40
10.5
  1
1
  0
LINE
  5
2383
  8
0
 62
     1
 10
4227.0526755805612993
 20
-8.8410020922265335
 30
0.0
 11
4234.0526755805612993
 21
-8.8410020922265389
 31
0.0
  0
TEXT
  5
2384
  8
0
 62
     1
 10
4227.0526755805612993
 20
-21.0910020922265389
 30
0.0
 40
10.5
  1
8
  0
TEXT
  5
2385
  8
0
 62
     1
 10
4238.4276755805612993
 20
-16.343252092226539
 30
0.0
 40
15.0045000000000002
  1
"
  0
ENDBLK
  5
2386
  8
0
  0
BLOCK
  8
0
  2
*D428
 70
     1
 10
0.0
 20
0.0
 30
0.0
  3
*D428
  1

  0
LINE
  5
2389
  8
0
 62
     0
 10
1870.3780060120009239
 20
-57.4200215358359713
 30
0.0
 11
2303.378006011999787
 21
-57.4200215358359713
 31
0.0
  0
SOLID
  5
238A
  8
0
 62
     0
 10
1870.3780060120009239
 20
-54.9200215358359713
 30
0.0
 11
1870.3780060120009239
 21
-59.9200215358359713
 31
0.0
 12
1855.3780060120009239
 22
-57.4200215358359713
 32
0.0
 13
1855.3780060120009239
 23
-57.4200215358359713
 33
0.0
  0
SOLID
  5
238B
  8
0
 62
     0
 10
2303.378006011999787
 20
-54.9200215358359713
 30
0.0
 11
2303.378006011999787
 21
-59.9200215358359713
 31
0.0
 12
2318.378006011999787
 22
-57.4200215358359713
 32
0.0
 13
2318.378006011999787
 23
-57.4200215358359713
 33
0.0
  0
INSERT
  5
238C
  8
0
  2
*U429
 10
0.0
 20
0.0
 30
0.0
  0
POINT
  5
238D
  8
DEFPOINTS
 62
     0
 10
1855.3780060120009239
 20
-86.3476212283594577
 30
0.0
  0
POINT
  5
238E
  8
DEFPOINTS
 62
     0
 10
2318.378006011999787
 20
-67.3104153362182842
 30
0.0
  0
POINT
  5
238F
  8
DEFPOINTS
 62
     0
 10
2318.378006011999787
 20
-57.4200215358359713
 30
0.0
  0
ENDBLK
  5
2390
  8
0
  0
BLOCK
  8
0
  2
*U429
 70
     1
 10
0.0
 20
0.0
 30
0.0
  3
*U429
  1

  0
TEXT
  5
2B55
  8
0
 62
     0
 10
2066.8780060120011512
 20
-47.4200215358359713
 30
0.0
 40
15.0
  1
463
  0
ENDBLK
  5
2B57
  8
0
  0
BLOCK
  8
0
  2
*D430
 70
     1
 10
0.0
 20
0.0
 30
0.0
  3
*D430
  1

  0
LINE
  5
2393
  8
0
 62
     0
 10
1832.8471820796460179
 20
-89.8476212283594293
 30
0.0
 11
1832.8471820796460179
 21
-368.8476212283595146
 31
0.0
  0
SOLID
  5
2394
  8
0
 62
     0
 10
1830.3471820796469274
 20
-89.8476212283594293
 30
0.0
 11
1835.3471820796469274
 21
-89.8476212283594293
 31
0.0
 12
1832.8471820796460179
 22
-74.8476212283594435
 32
0.0
 13
1832.8471820796460179
 23
-74.8476212283594435
 33
0.0
  0
SOLID
  5
2395
  8
0
 62
     0
 10
1830.3471820796469274
 20
-368.8476212283595146
 30
0.0
 11
1835.3471820796469274
 21
-368.8476212283595146
 31
0.0
 12
1832.8471820796460179
 22
-383.8476212283595146
 32
0.0
 13
1832.8471820796460179
 23
-383.8476212283595146
 33
0.0
  0
INSERT
  5
2396
  8
0
  2
*U431
 10
0.0
 20
0.0
 30
0.0
  0
POINT
  5
2397
  8
DEFPOINTS
 62
     0
 10
1849.3174263328769484
 20
-74.8476212283594435
 30
0.0
  0
POINT
  5
2398
  8
DEFPOINTS
 62
     0
 10
1866.8780060119991049
 20
-383.8476212283595146
 30
0.0
  0
POINT
  5
2399
  8
DEFPOINTS
 62
     0
 10
1832.8471820796460179
 20
-383.8476212283595146
 30
0.0
  0
ENDBLK
  5
239A
  8
0
  0
BLOCK
  8
0
  2
*U431
 70
     1
 10
0.0
 20
0.0
 30
0.0
  3
*U431
  1

  0
TEXT
  5
2B59
  8
0
 62
     0
 10
1822.8471820796460179
 20
-248.097621228359202
 30
0.0
 40
15.0
  1
309
 50
90.0
  0
ENDBLK
  5
2B5B
  8
0
  0
BLOCK
  8
0
  2
*U432
 70
     1
 10
0.0
 20
0.0
 30
0.0
  3
*U432
  1

  0
TEXT
  5
239D
  8
0
 62
     1
 10
6535.2910408698453466
 20
-117.3585305118754007
 30
0.0
 40
20.0
  1
zero reveal cut-out
  0
ENDBLK
  5
239E
  8
0
  0
BLOCK
  8
0
  2
*D433
 70
     1
 10
0.0
 20
0.0
 30
0.0
  3
*D433
  1

  0
LINE
  5
23CD
  8
0
 62
     0
 10
2223.0366509768759897
 20
-236.6878253305586099
 30
0.0
 11
2656.0366509768750802
 21
-236.6878253305586099
 31
0.0
  0
SOLID
  5
23CE
  8
0
 62
     0
 10
2223.0366509768759897
 20
-234.1878253305586099
 30
0.0
 11
2223.0366509768759897
 21
-239.1878253305586099
 31
0.0
 12
2208.0366509768759897
 22
-236.6878253305586099
 32
0.0
 13
2208.0366509768759897
 23
-236.6878253305586099
 33
0.0
  0
SOLID
  5
23CF
  8
0
 62
     0
 10
2656.0366509768750802
 20
-234.1878253305586099
 30
0.0
 11
2656.0366509768750802
 21
-239.1878253305586099
 31
0.0
 12
2671.0366509768750802
 22
-236.6878253305586099
 32
0.0
 13
2671.0366509768750802
 23
-236.6878253305586099
 33
0.0
  0
INSERT
  5
23D0
  8
0
  2
*U434
 10
0.0
 20
0.0
 30
0.0
  0
POINT
  5
23D1
  8
DEFPOINTS
 62
     0
 10
2208.0366509768759897
 20
-265.6154250230820253
 30
0.0
  0
POINT
  5
23D2
  8
DEFPOINTS
 62
     0
 10
2671.0366509768750802
 20
-246.5782191309409086
 30
0.0
  0
POINT
  5
23D3
  8
DEFPOINTS
 62
     0
 10
2671.0366509768750802
 20
-236.6878253305586099
 30
0.0
  0
ENDBLK
  5
23C2
  8
0
  0
BLOCK
  8
0
  2
*U434
 70
     1
 10
0.0
 20
0.0
 30
0.0
  3
*U434
  1

  0
TEXT
  5
2B65
  8
0
 62
     0
 10
2419.5366509768759897
 20
-226.6878253305586099
 30
0.0
 40
15.0
  1
463
  0
ENDBLK
  5
2B67
  8
0
  0
BLOCK
  8
0
  2
*D435
 70
     1
 10
0.0
 20
0.0
 30
0.0
  3
*D435
  1

  0
LINE
  5
23D4
  8
0
 62
     0
 10
2185.5058270445219932
 20
-269.1154250230820821
 30
0.0
 11
2185.5058270445219932
 21
-548.1154250230820253
 31
0.0
  0
SOLID
  5
23D5
  8
0
 62
     0
 10
2183.0058270445219932
 20
-269.1154250230820821
 30
0.0
 11
2188.0058270445219932
 21
-269.1154250230820821
 31
0.0
 12
2185.5058270445219932
 22
-254.1154250230819969
 32
0.0
 13
2185.5058270445219932
 23
-254.1154250230819969
 33
0.0
  0
SOLID
  5
23D6
  8
0
 62
     0
 10
2183.0058270445219932
 20
-548.1154250230820253
 30
0.0
 11
2188.0058270445219932
 21
-548.1154250230820253
 31
0.0
 12
2185.5058270445219932
 22
-563.1154250230820253
 32
0.0
 13
2185.5058270445219932
 23
-563.1154250230820253
 33
0.0
  0
INSERT
  5
23D7
  8
0
  2
*U436
 10
0.0
 20
0.0
 30
0.0
  0
POINT
  5
23D8
  8
DEFPOINTS
 62
     0
 10
2201.9760712977517869
 20
-254.1154250230819969
 30
0.0
  0
POINT
  5
23D9
  8
DEFPOINTS
 62
     0
 10
2219.5366509768741707
 20
-563.1154250230820253
 30
0.0
  0
POINT
  5
23DA
  8
DEFPOINTS
 62
     0
 10
2185.5058270445219932
 20
-563.1154250230820253
 30
0.0
  0
ENDBLK
  5
23CC
  8
0
  0
BLOCK
  8
0
  2
*U436
 70
     1
 10
0.0
 20
0.0
 30
0.0
  3
*U436
  1

  0
TEXT
  5
2B69
  8
0
 62
     0
 10
2175.5058270445219932
 20
-427.3654250230816842
 30
0.0
 40
15.0
  1
309
 50
90.0
  0
ENDBLK
  5
2B6B
  8
0
  0
BLOCK
  8
0
  2
*D437
 70
     1
 10
0.0
 20
0.0
 30
0.0
  3
*D437
  1

  0
LINE
  5
23FA
  8
0
 62
     0
 10
6582.5799368978523489
 20
-4425.2773869795037172
 30
0.0
 11
7339.9799368978528946
 21
-4425.2773869795037172
 31
0.0
  0
SOLID
  5
23FB
  8
0
 62
     0
 10
6582.5799368978523489
 20
-4422.7773869795073551
 30
0.0
 11
6582.5799368978523489
 21
-4427.7773869795064456
 31
0.0
 12
6567.5799368978523489
 22
-4425.2773869795037172
 32
0.0
 13
6567.5799368978523489
 23
-4425.2773869795037172
 33
0.0
  0
SOLID
  5
23FC
  8
0
 62
     0
 10
7339.9799368978528946
 20
-4422.7773869795073551
 30
0.0
 11
7339.9799368978528946
 21
-4427.7773869795064456
 31
0.0
 12
7354.9799368978519851
 22
-4425.2773869795037172
 32
0.0
 13
7354.9799368978519851
 23
-4425.2773869795037172
 33
0.0
  0
INSERT
  5
23FD
  8
0
  2
*U438
 10
0.0
 20
0.0
 30
0.0
  0
POINT
  5
23FE
  8
DEFPOINTS
 62
     0
 10
6567.5799368978523489
 20
-4716.0000432330680269
 30
0.0
  0
POINT
  5
23FF
  8
DEFPOINTS
 62
     0
 10
7354.9799368978519851
 20
-4716.0000432330680269
 30
0.0
  0
POINT
  5
2400
  8
DEFPOINTS
 62
     0
 10
7354.9799368978519851
 20
-4425.2773869795037172
 30
0.0
  0
ENDBLK
  5
2401
  8
0
  0
BLOCK
  8
0
  2
*U438
 70
     1
 10
0.0
 20
0.0
 30
0.0
  3
*U438
  1

  0
TEXT
  5
2404
  8
0
 62
     0
 10
6942.3261095637735707
 20
-4425.1873869795053906
 30
0.0
 40
20.0
  1
31''
  0
ENDBLK
  5
2405
  8
0
  0
BLOCK
  8
0
  2
*D439
 70
     1
 10
0.0
 20
0.0
 30
0.0
  3
*D439
  1

  0
LINE
  5
2408
  8
0
 62
     0
 10
6509.7295293237575606
 20
-4510.2500432330662079
 30
0.0
 11
6509.7295293237575606
 21
-4866.7871669594242121
 31
0.0
  0
SOLID
  5
2409
  8
0
 62
     0
 10
6507.2295293237566511
 20
-4510.2500432330662079
 30
0.0
 11
6512.2295293237566511
 21
-4510.2500432330662079
 31
0.0
 12
6509.7295293237575606
 22
-4495.2500432330680269
 32
0.0
 13
6509.7295293237575606
 23
-4495.2500432330680269
 33
0.0
  0
SOLID
  5
240A
  8
0
 62
     0
 10
6507.2295293237566511
 20
-4866.7871669594242121
 30
0.0
 11
6512.2295293237566511
 21
-4866.7871669594242121
 31
0.0
 12
6509.7295293237575606
 22
-4881.7871669594242121
 32
0.0
 13
6509.7295293237575606
 23
-4881.7871669594242121
 33
0.0
  0
INSERT
  5
240B
  8
0
  2
*U440
 10
0.0
 20
0.0
 30
0.0
  0
POINT
  5
240C
  8
DEFPOINTS
 62
     0
 10
6961.2799368978512575
 20
-4495.2500432330680269
 30
0.0
  0
POINT
  5
240D
  8
DEFPOINTS
 62
     0
 10
6961.279936897850348
 20
-4881.7871669594242121
 30
0.0
  0
POINT
  5
240E
  8
DEFPOINTS
 62
     0
 10
6509.7295293237575606
 20
-4881.7871669594242121
 30
0.0
  0
ENDBLK
  5
240F
  8
0
  0
BLOCK
  8
0
  2
*U440
 70
     1
 10
0.0
 20
0.0
 30
0.0
  3
*U440
  1

  0
TEXT
  5
2412
  8
0
 62
     0
 10
6509.6395293237583246
 20
-4750.8962906779934201
 30
0.0
 40
20.0
  1
16-1/8''
 50
90.0
  0
ENDBLK
  5
2413
  8
0
  0
BLOCK
  8
0
  2
*D441
 70
     1
 10
0.0
 20
0.0
 30
0.0
  3
*D441
  1

  0
LINE
  5
2416
  8
0
 62
     0
 10
6582.5799368978487109
 20
-4376.4846418988499863
 30
0.0
 11
7339.9799368978519851
 21
-4376.4846418988499863
 31
0.0
  0
SOLID
  5
2417
  8
0
 62
     0
 10
6582.5799368978487109
 20
-4373.9846418988490768
 30
0.0
 11
6582.5799368978487109
 21
-4378.9846418988499863
 31
0.0
 12
6567.5799368978496204
 22
-4376.4846418988499863
 32
0.0
 13
6567.5799368978496204
 23
-4376.4846418988499863
 33
0.0
  0
SOLID
  5
2418
  8
0
 62
     0
 10
7339.9799368978519851
 20
-4373.9846418988490768
 30
0.0
 11
7339.9799368978519851
 21
-4378.9846418988499863
 31
0.0
 12
7354.9799368978519851
 22
-4376.4846418988499863
 32
0.0
 13
7354.9799368978519851
 23
-4376.4846418988499863
 33
0.0
  0
INSERT
  5
2419
  8
0
  2
*U442
 10
0.0
 20
0.0
 30
0.0
  0
POINT
  5
241A
  8
DEFPOINTS
 62
     0
 10
6567.5799368978496204
 20
-4700.0000432330671174
 30
0.0
  0
POINT
  5
241B
  8
DEFPOINTS
 62
     0
 10
7354.9799368978519851
 20
-4700.0000432330671174
 30
0.0
  0
POINT
  5
241C
  8
DEFPOINTS
 62
     0
 10
7354.9799368978519851
 20
-4376.4846418988499863
 30
0.0
  0
ENDBLK
  5
241D
  8
0
  0
BLOCK
  8
0
  2
*U442
 70
     1
 10
0.0
 20
0.0
 30
0.0
  3
*U442
  1

  0
TEXT
  5
2420
  8
0
 62
     0
 10
6919.0012380028956613
 20
-4376.3946418988489313
 30
0.0
 40
20.0
  1
787.4
  0
ENDBLK
  5
2421
  8
0
  0
BLOCK
  8
0
  2
*D443
 70
     1
 10
0.0
 20
0.0
 30
0.0
  3
*D443
  1

  0
LINE
  5
2424
  8
0
 62
     0
 10
6463.6885619935555951
 20
-4510.2500432330662079
 30
0.0
 11
6463.6885619935555951
 21
-4889.7500432330680269
 31
0.0
  0
SOLID
  5
2425
  8
0
 62
     0
 10
6461.1885619935555951
 20
-4510.2500432330662079
 30
0.0
 11
6466.1885619935555951
 21
-4510.2500432330662079
 31
0.0
 12
6463.6885619935555951
 22
-4495.2500432330680269
 32
0.0
 13
6463.6885619935555951
 23
-4495.2500432330680269
 33
0.0
  0
SOLID
  5
2426
  8
0
 62
     0
 10
6461.1885619935555951
 20
-4889.7500432330680269
 30
0.0
 11
6466.1885619935555951
 21
-4889.7500432330680269
 31
0.0
 12
6463.6885619935555951
 22
-4904.7500432330689364
 32
0.0
 13
6463.6885619935555951
 23
-4904.7500432330689364
 33
0.0
  0
INSERT
  5
2427
  8
0
  2
*U444
 10
0.0
 20
0.0
 30
0.0
  0
POINT
  5
2428
  8
DEFPOINTS
 62
     0
 10
6961.2799368978512575
 20
-4495.2500432330680269
 30
0.0
  0
POINT
  5
2429
  8
DEFPOINTS
 62
     0
 10
6961.279936897850348
 20
-4904.7500432330689364
 30
0.0
  0
POINT
  5
242A
  8
DEFPOINTS
 62
     0
 10
6463.6885619935555951
 20
-4904.7500432330689364
 30
0.0
  0
ENDBLK
  5
242B
  8
0
  0
BLOCK
  8
0
  2
*U444
 70
     1
 10
0.0
 20
0.0
 30
0.0
  3
*U444
  1

  0
TEXT
  5
242E
  8
0
 62
     0
 10
6463.5985619935563591
 20
-4738.3333765664010571
 30
0.0
 40
20.0
  1
409.5
 50
90.0
  0
ENDBLK
  5
242F
  8
0
  0
BLOCK
  8
0
  2
*D445
 70
     1
 10
0.0
 20
0.0
 30
0.0
  3
*D445
  1

  0
LINE
  5
2432
  8
0
 62
     0
 10
6713.1380675295931724
 20
-4858.3167514285169091
 30
0.0
 11
6669.7147341962581777
 21
-4858.3167514285169091
 31
0.0
  0
LINE
  5
2433
  8
0
 62
     0
 10
6669.7147341962581777
 20
-4858.3167514285169091
 30
0.0
 11
6582.2296040558621826
 21
-4892.9114037034933062
 31
0.0
  0
TEXT
  5
2434
  8
0
 62
     0
 10
6651.4700000000002547
 20
-4883.6300000000001091
 30
0.0
 40
20.0
  1
R10
  0
SOLID
  5
2435
  8
0
 62
     0
 10
6581.3102842910775507
 20
-4890.5865701244865704
 30
0.0
 11
6583.1489238206477239
 21
-4895.2362372825000421
 31
0.0
 12
6568.2806025818263151
 22
-4898.4273222922065543
 32
0.0
 13
6568.2806025818263151
 23
-4898.4273222922065543
 33
0.0
  0
POINT
  5
2436
  8
DEFPOINTS
 62
     0
 10
6568.2806025818263151
 20
-4898.4273222922065543
 30
0.0
  0
POINT
  5
2437
  8
DEFPOINTS
 62
     0
 10
6577.579936897845073
 20
-4894.7500432330671174
 30
0.0
  0
ENDBLK
  5
2438
  8
0
  0
BLOCK
  8
0
  2
*D446
 70
     1
 10
0.0
 20
0.0
 30
0.0
  3
*D446
  1

  0
LINE
  5
243B
  8
0
 62
     0
 10
7495.0403918138199515
 20
-4943.7122269961782877
 30
0.0
 11
7414.9503918138188965
 21
-4943.7122269961782877
 31
0.0
  0
LINE
  5
243C
  8
0
 62
     0
 10
7414.9503918138188965
 20
-4943.7122269961782877
 30
0.0
 11
7386.273975864653039
 21
-4923.6457582408047529
 31
0.0
  0
INSERT
  5
243D
  8
0
  2
*U447
 10
0.0
 20
0.0
 30
0.0
  0
SOLID
  5
243E
  8
0
 62
     0
 10
7387.7072950614656293
 20
-4921.597442815865179
 30
0.0
 11
7384.8406566678422678
 21
-4925.6940736657452362
 31
0.0
 12
7373.9840833150101389
 22
-4915.0458430599319399
 32
0.0
 13
7373.9840833150101389
 23
-4915.0458430599319399
 33
0.0
  0
LINE
  5
243F
  8
0
 62
     0
 10
7344.8899368978527491
 20
-4894.7500432330680269
 30
0.0
 11
7345.0699368978539496
 21
-4894.7500432330689364
 31
0.0
  0
LINE
  5
2440
  8
0
 62
     0
 10
7344.9799368978538041
 20
-4894.8400432330690819
 30
0.0
 11
7344.9799368978538041
 21
-4894.6600432330678814
 31
0.0
  0
POINT
  5
2441
  8
DEFPOINTS
 62
     0
 10
7373.9840833150101389
 20
-4915.0458430599319399
 30
0.0
  0
POINT
  5
2442
  8
DEFPOINTS
 62
     0
 10
7344.9799368978538041
 20
-4894.7500432330689364
 30
0.0
  0
ENDBLK
  5
2443
  8
0
  0
BLOCK
  8
0
  2
*U447
 70
     1
 10
0.0
 20
0.0
 30
0.0
  3
*U447
  1

  0
TEXT
  5
2446
  8
0
 62
     0
 10
7415.040391813819042
 20
-4943.6222269961763232
 30
0.0
 40
20.0
  1
R35.4
  0
ENDBLK
  5
2447
  8
0
  0
BLOCK
  8
0
  2
*D448
 70
     1
 10
0.0
 20
0.0
 30
0.0
  3
*D448
  1

  0
LINE
  5
282C
  8
0
 62
     0
 10
2166.047334184281226
 20
-3419.8333426223521201
 30
0.0
 11
2122.6240008509471409
 21
-3419.8333426223512106
 31
0.0
  0
LINE
  5
282D
  8
0
 62
     0
 10
2122.6240008509471409
 20
-3419.8333426223512106
 30
0.0
 11
2035.13887071057502
 21
-3454.4279948973248793
 31
0.0
  0
INSERT
  5
282E
  8
0
  2
*U449
 10
0.0
 20
0.0
 30
0.0
  0
SOLID
  5
282F
  8
0
 62
     0
 10
2034.2195509457890239
 20
-3452.103161318319053
 30
0.0
 11
2036.0581904753610161
 21
-3456.7528284763311603
 31
0.0
 12
2021.1898692365380157
 22
-3459.9439134860399463
 32
0.0
 13
2021.1898692365380157
 23
-3459.9439134860399463
 33
0.0
  0
POINT
  5
2830
  8
DEFPOINTS
 62
     0
 10
2021.1898692365380157
 20
-3459.9439134860399463
 30
0.0
  0
POINT
  5
2831
  8
DEFPOINTS
 62
     0
 10
2030.4892035525570009
 20
-3456.2666344268991452
 30
0.0
  0
ENDBLK
  5
26C9
  8
0
  0
BLOCK
  8
0
  2
*U449
 70
     1
 10
0.0
 20
0.0
 30
0.0
  3
*U449
  1

  0
TEXT
  5
2BDD
  8
0
 62
     0
 10
2122.7140008509468316
 20
-3419.7433426223528841
 30
0.0
 40
20.0
  1
R10
  0
ENDBLK
  5
2BDF
  8
0
  0
BLOCK
  8
0
  2
*D450
 70
     1
 10
0.0
 20
0.0
 30
0.0
  3
*D450
  1

  0
LINE
  5
2704
  8
0
 62
     0
 10
4970.8746150503757235
 20
-3616.170115371655811
 30
0.0
 11
4890.7846150503746685
 21
-3616.1701153716571753
 31
0.0
  0
LINE
  5
2705
  8
0
 62
     0
 10
4890.7846150503746685
 20
-3616.1701153716571753
 30
0.0
 11
4862.108199101208811
 21
-3596.1036466162831857
 31
0.0
  0
INSERT
  5
2706
  8
0
  2
*U451
 10
0.0
 20
0.0
 30
0.0
  0
SOLID
  5
2707
  8
0
 62
     0
 10
4863.5415182980214013
 20
-3594.0553311913431571
 30
0.0
 11
4860.6748799043971303
 21
-3598.1519620412241238
 31
0.0
 12
4849.8183065515659109
 22
-3587.5037314354090086
 32
0.0
 13
4849.8183065515659109
 23
-3587.5037314354090086
 33
0.0
  0
LINE
  5
2708
  8
0
 62
     0
 10
4820.7241601344076116
 20
-3567.2079316085450955
 30
0.0
 11
4820.9041601344079027
 21
-3567.207931608546005
 31
0.0
  0
LINE
  5
2709
  8
0
 62
     0
 10
4820.8141601344095761
 20
-3567.29793160854706
 30
0.0
 11
4820.8141601344095761
 21
-3567.1179316085458595
 31
0.0
  0
POINT
  5
270A
  8
DEFPOINTS
 62
     0
 10
4849.8183065515659109
 20
-3587.5037314354090086
 30
0.0
  0
POINT
  5
270B
  8
DEFPOINTS
 62
     0
 10
4820.8141601344095761
 20
-3567.207931608546005
 30
0.0
  0
ENDBLK
  5
26D4
  8
0
  0
BLOCK
  8
0
  2
*U451
 70
     1
 10
0.0
 20
0.0
 30
0.0
  3
*U451
  1

  0
TEXT
  5
2BA1
  8
0
 62
     0
 10
4890.8746150503757235
 20
-3616.0801153716570298
 30
0.0
 40
20.0
  1
R35.4
  0
ENDBLK
  5
2BA3
  8
0
  0
BLOCK
  8
0
  2
*D452
 70
     1
 10
0.0
 20
0.0
 30
0.0
  3
*D452
  1

  0
LINE
  5
270C
  8
0
 62
     0
 10
4058.4141601344072114
 20
-3097.73527535498215
 30
0.0
 11
4815.8141601344077571
 21
-3097.73527535498215
 31
0.0
  0
SOLID
  5
270D
  8
0
 62
     0
 10
4058.4141601344072114
 20
-3095.23527535498215
 30
0.0
 11
4058.4141601344072114
 21
-3100.23527535498215
 31
0.0
 12
4043.4141601344058472
 22
-3097.73527535498215
 32
0.0
 13
4043.4141601344058472
 23
-3097.73527535498215
 33
0.0
  0
SOLID
  5
270E
  8
0
 62
     0
 10
4815.8141601344077571
 20
-3095.23527535498215
 30
0.0
 11
4815.8141601344077571
 21
-3100.23527535498215
 31
0.0
 12
4830.8141601344077571
 22
-3097.73527535498215
 32
0.0
 13
4830.8141601344077571
 23
-3097.73527535498215
 33
0.0
  0
INSERT
  5
270F
  8
0
  2
*U453
 10
0.0
 20
0.0
 30
0.0
  0
POINT
  5
2710
  8
DEFPOINTS
 62
     0
 10
4043.4141601344058472
 20
-3388.4579316085450955
 30
0.0
  0
POINT
  5
2711
  8
DEFPOINTS
 62
     0
 10
4830.8141601344077571
 20
-3388.4579316085450955
 30
0.0
  0
POINT
  5
2712
  8
DEFPOINTS
 62
     0
 10
4830.8141601344077571
 20
-3097.73527535498215
 30
0.0
  0
ENDBLK
  5
26DE
  8
0
  0
BLOCK
  8
0
  2
*U453
 70
     1
 10
0.0
 20
0.0
 30
0.0
  3
*U453
  1

  0
TEXT
  5
2BA5
  8
0
 62
     0
 10
4418.1603328003284332
 20
-3097.645275354982914
 30
0.0
 40
20.0
  1
31''
  0
ENDBLK
  5
2BA7
  8
0
  0
BLOCK
  8
0
  2
*D454
 70
     1
 10
0.0
 20
0.0
 30
0.0
  3
*D454
  1

  0
LINE
  5
2713
  8
0
 62
     0
 10
3985.5637525603128779
 20
-3182.707931608546005
 30
0.0
 11
3985.5637525603128779
 21
-3539.2450553349021902
 31
0.0
  0
SOLID
  5
2714
  8
0
 62
     0
 10
3983.0637525603137874
 20
-3182.707931608546005
 30
0.0
 11
3988.0637525603128779
 21
-3182.707931608546005
 31
0.0
 12
3985.5637525603128779
 22
-3167.7079316085450955
 32
0.0
 13
3985.5637525603128779
 23
-3167.7079316085450955
 33
0.0
  0
SOLID
  5
2715
  8
0
 62
     0
 10
3983.0637525603137874
 20
-3539.2450553349021902
 30
0.0
 11
3988.0637525603128779
 21
-3539.2450553349021902
 31
0.0
 12
3985.5637525603128779
 22
-3554.245055334900826
 32
0.0
 13
3985.5637525603128779
 23
-3554.245055334900826
 33
0.0
  0
INSERT
  5
2716
  8
0
  2
*U455
 10
0.0
 20
0.0
 30
0.0
  0
POINT
  5
2717
  8
DEFPOINTS
 62
     0
 10
4437.1141601344070295
 20
-3167.7079316085450955
 30
0.0
  0
POINT
  5
2718
  8
DEFPOINTS
 62
     0
 10
4437.1141601344070295
 20
-3554.245055334900826
 30
0.0
  0
POINT
  5
2719
  8
DEFPOINTS
 62
     0
 10
3985.5637525603128779
 20
-3554.245055334900826
 30
0.0
  0
ENDBLK
  5
26E8
  8
0
  0
BLOCK
  8
0
  2
*U455
 70
     1
 10
0.0
 20
0.0
 30
0.0
  3
*U455
  1

  0
TEXT
  5
2BA9
  8
0
 62
     0
 10
3985.4737525603131871
 20
-3423.354179053470034
 30
0.0
 40
20.0
  1
16-1/8''
 50
90.0
  0
ENDBLK
  5
2BAB
  8
0
  0
BLOCK
  8
0
  2
*D456
 70
     1
 10
0.0
 20
0.0
 30
0.0
  3
*D456
  1

  0
LINE
  5
271A
  8
0
 62
     0
 10
4058.4141601344072114
 20
-3048.9425302743270549
 30
0.0
 11
4369.7454612394521973
 21
-3048.9425302743270549
 31
0.0
  0
LINE
  5
271B
  8
0
 62
     0
 10
4815.8141601344077571
 20
-3048.9425302743270549
 30
0.0
 11
4499.9254612394515789
 21
-3048.9425302743270549
 31
0.0
  0
INSERT
  5
271C
  8
0
  2
*U457
 10
0.0
 20
0.0
 30
0.0
  0
SOLID
  5
271D
  8
0
 62
     0
 10
4058.4141601344072114
 20
-3046.4425302743261454
 30
0.0
 11
4058.4141601344072114
 21
-3051.4425302743270549
 31
0.0
 12
4043.4141601344049377
 22
-3048.9425302743270549
 32
0.0
 13
4043.4141601344049377
 23
-3048.9425302743270549
 33
0.0
  0
SOLID
  5
271E
  8
0
 62
     0
 10
4815.8141601344077571
 20
-3046.4425302743261454
 30
0.0
 11
4815.8141601344077571
 21
-3051.4425302743270549
 31
0.0
 12
4830.8141601344077571
 22
-3048.9425302743270549
 32
0.0
 13
4830.8141601344077571
 23
-3048.9425302743270549
 33
0.0
  0
POINT
  5
271F
  8
DEFPOINTS
 62
     0
 10
4043.4141601344049377
 20
-3372.457931608544186
 30
0.0
  0
POINT
  5
2720
  8
DEFPOINTS
 62
     0
 10
4830.8141601344077571
 20
-3372.457931608544186
 30
0.0
  0
POINT
  5
2721
  8
DEFPOINTS
 62
     0
 10
4830.8141601344077571
 20
-3048.9425302743270549
 30
0.0
  0
ENDBLK
  5
26F3
  8
0
  0
BLOCK
  8
0
  2
*U457
 70
     1
 10
0.0
 20
0.0
 30
0.0
  3
*U457
  1

  0
TEXT
  5
2BAD
  8
0
 62
     0
 10
4369.8354612394523429
 20
-3058.9425302743270549
 30
0.0
 40
20.0
  1
787.4000
  0
ENDBLK
  5
2BAF
  8
0
  0
BLOCK
  8
0
  2
*D458
 70
     1
 10
0.0
 20
0.0
 30
0.0
  3
*D458
  1

  0
LINE
  5
2722
  8
0
 62
     0
 10
3939.5227852301109124
 20
-3182.707931608546005
 30
0.0
 11
3939.5227852301109124
 21
-3562.207931608546005
 31
0.0
  0
SOLID
  5
2723
  8
0
 62
     0
 10
3937.0227852301109124
 20
-3182.707931608546005
 30
0.0
 11
3942.0227852301131861
 21
-3182.707931608546005
 31
0.0
 12
3939.5227852301109124
 22
-3167.7079316085450955
 32
0.0
 13
3939.5227852301109124
 23
-3167.7079316085450955
 33
0.0
  0
SOLID
  5
2724
  8
0
 62
     0
 10
3937.0227852301109124
 20
-3562.207931608546005
 30
0.0
 11
3942.0227852301131861
 21
-3562.207931608546005
 31
0.0
 12
3939.5227852301109124
 22
-3577.207931608546005
 32
0.0
 13
3939.5227852301109124
 23
-3577.207931608546005
 33
0.0
  0
INSERT
  5
2725
  8
0
  2
*U459
 10
0.0
 20
0.0
 30
0.0
  0
POINT
  5
2726
  8
DEFPOINTS
 62
     0
 10
4437.1141601344070295
 20
-3167.7079316085450955
 30
0.0
  0
POINT
  5
2727
  8
DEFPOINTS
 62
     0
 10
4437.1141601344070295
 20
-3577.207931608546005
 30
0.0
  0
POINT
  5
2728
  8
DEFPOINTS
 62
     0
 10
3939.5227852301109124
 20
-3577.207931608546005
 30
0.0
  0
ENDBLK
  5
26FD
  8
0
  0
BLOCK
  8
0
  2
*U459
 70
     1
 10
0.0
 20
0.0
 30
0.0
  3
*U459
  1

  0
TEXT
  5
2BB1
  8
0
 62
     0
 10
3939.4327852301121311
 20
-3435.7912649418781257
 30
0.0
 40
20.0
  1
409.5000
 50
90.0
  0
ENDBLK
  5
2BB3
  8
0
  0
BLOCK
  8
0
  2
*D460
 70
     1
 10
0.0
 20
0.0
 30
0.0
  3
*D460
  1

  0
LINE
  5
2832
  8
0
 62
     0
 10
2035.4892035525640495
 20
-2983.1664910514500662
 30
0.0
 11
2795.489203552564959
 21
-2983.1664910514500662
 31
0.0
  0
SOLID
  5
2833
  8
0
 62
     0
 10
2035.4892035525640495
 20
-2980.6664910514500662
 30
0.0
 11
2035.4892035525640495
 21
-2985.6664910514500662
 31
0.0
 12
2020.4892035525640495
 22
-2983.1664910514500662
 32
0.0
 13
2020.4892035525640495
 23
-2983.1664910514500662
 33
0.0
  0
SOLID
  5
2834
  8
0
 62
     0
 10
2795.489203552564959
 20
-2980.6664910514500662
 30
0.0
 11
2795.489203552564959
 21
-2985.6664910514500662
 31
0.0
 12
2810.489203552564959
 22
-2983.1664910514500662
 32
0.0
 13
2810.489203552564959
 23
-2983.1664910514500662
 33
0.0
  0
INSERT
  5
2835
  8
0
  2
*U461
 10
0.0
 20
0.0
 30
0.0
  0
POINT
  5
2836
  8
DEFPOINTS
 62
     0
 10
2020.4892035525640495
 20
-3285.5166344269000547
 30
0.0
  0
POINT
  5
2837
  8
DEFPOINTS
 62
     0
 10
2810.489203552564959
 20
-3288.375391240359022
 30
0.0
  0
POINT
  5
2838
  8
DEFPOINTS
 62
     0
 10
2810.489203552564959
 20
-2983.1664910514500662
 30
0.0
  0
ENDBLK
  5
2739
  8
0
  0
BLOCK
  8
0
  2
*U461
 70
     1
 10
0.0
 20
0.0
 30
0.0
  3
*U461
  1

  0
TEXT
  5
2BE1
  8
0
 62
     0
 10
2381.7392035525640495
 20
-2973.1664910514500662
 30
0.0
 40
15.0
  1
790mm
  0
ENDBLK
  5
2BE3
  8
0
  0
BLOCK
  8
0
  2
*D462
 70
     1
 10
0.0
 20
0.0
 30
0.0
  3
*D462
  1

  0
LINE
  5
2839
  8
0
 62
     0
 10
1913.4698905203829327
 20
-3073.2666344269009642
 30
0.0
 11
1913.4698905203829327
 21
-3451.2666344269018737
 31
0.0
  0
SOLID
  5
283A
  8
0
 62
     0
 10
1910.9698905203840695
 20
-3073.2666344269009642
 30
0.0
 11
1915.9698905203840695
 21
-3073.2666344269009642
 31
0.0
 12
1913.4698905203829327
 22
-3058.2666344269018737
 32
0.0
 13
1913.4698905203829327
 23
-3058.2666344269018737
 33
0.0
  0
SOLID
  5
283B
  8
0
 62
     0
 10
1910.9698905203840695
 20
-3451.2666344269018737
 30
0.0
 11
1915.9698905203840695
 21
-3451.2666344269018737
 31
0.0
 12
1913.4698905203829327
 22
-3466.2666344269009642
 32
0.0
 13
1913.4698905203829327
 23
-3466.2666344269009642
 33
0.0
  0
INSERT
  5
283C
  8
0
  2
*U463
 10
0.0
 20
0.0
 30
0.0
  0
POINT
  5
283D
  8
DEFPOINTS
 62
     0
 10
2414.1892035525647771
 20
-3058.2666344269018737
 30
0.0
  0
POINT
  5
283E
  8
DEFPOINTS
 62
     0
 10
2414.1892035525638676
 20
-3466.2666344269009642
 30
0.0
  0
POINT
  5
283F
  8
DEFPOINTS
 62
     0
 10
1913.4698905203829327
 20
-3466.2666344269009642
 30
0.0
  0
ENDBLK
  5
2744
  8
0
  0
BLOCK
  8
0
  2
*U463
 70
     1
 10
0.0
 20
0.0
 30
0.0
  3
*U463
  1

  0
TEXT
  5
2BE5
  8
0
 62
     0
 10
1903.469890520384979
 20
-3296.0166344269009642
 30
0.0
 40
15.0
  1
408mm
 50
90.0
  0
ENDBLK
  5
2BE7
  8
0
  0
BLOCK
  8
0
  2
*U464
 70
     1
 10
0.0
 20
0.0
 30
0.0
  3
*U464
  1

  0
TEXT
  5
2777
  8
0
 10
5539.6052838558516669
 20
-1042.4231297877290672
 30
0.0
 40
17.0
  1
TOPZERO
  0
TEXT
  5
2778
  8
0
 10
5539.6052838558516669
 20
-1070.7564631210620973
 30
0.0
 40
17.0
  1
www.topzero.com
  0
ENDBLK
  5
2779
  8
0
  0
BLOCK
  8
0
  2
*U465
 70
     1
 10
0.0
 20
0.0
 30
0.0
  3
*U465
  1

  0
TEXT
  5
277C
  8
0
 10
6065.0260712844983573
 20
-1029.8389845157200853
 30
0.0
 40
18.0
  1
32''  LARGEEQUAL DOUBLE BOWL
  0
ENDBLK
  5
277D
  8
0
  0
BLOCK
  8
0
  2
*U466
 70
     1
 10
0.0
 20
0.0
 30
0.0
  3
*U466
  1

  0
TEXT
  5
2780
  8
0
 10
5882.1608490939297553
 20
-1137.3444490639180913
 30
0.0
 40
15.0
  1
Stainless
  0
TEXT
  5
2781
  8
0
 10
5882.1608490939297553
 20
-1162.3444490639180913
 30
0.0
 40
15.0
  1
steel
  0
ENDBLK
  5
2782
  8
0
  0
BLOCK
  8
0
  2
*U467
 70
     1
 10
0.0
 20
0.0
 30
0.0
  3
*U467
  1

  0
TEXT
  5
2785
  8
0
 10
6758.7067852180161935
 20
-1153.0398136992980653
 30
0.0
 40
20.0
  1
10/2020
  0
ENDBLK
  5
2786
  8
0
  0
BLOCK
  8
0
  2
*U468
 70
     1
 10
0.0
 20
0.0
 30
0.0
  3
*U468
  1

  0
TEXT
  5
2789
  8
0
 10
6913.7477687559248807
 20
-21.003229271015929
 30
0.0
 40
20.0
  1
mm
  0
TEXT
  5
278A
  8
0
 10
6887.0811020892579108
 20
-54.3365626043492611
 30
0.0
 40
20.0
  1
[
  0
TEXT
  5
278B
  8
0
 10
6900.414435422590941
 20
-54.3365626043492611
 30
0.0
 40
20.0
  1
inch
  0
TEXT
  5
278C
  8
0
 10
6967.0811020892588203
 20
-54.3365626043492611
 30
0.0
 40
20.0
  1
]
  0
ENDBLK
  5
278D
  8
0
  0
BLOCK
  8
0
  2
*U469
 70
     1
 10
0.0
 20
0.0
 30
0.0
  3
*U469
  1

  0
TEXT
  5
2790
  8
0
 10
6650.1572366616774161
 20
-974.5852676629779126
 30
0.0
 40
12.0
  1
This template file is meant to be a guideline
  0
TEXT
  5
2791
  8
0
 10
6650.1572366616774161
 20
-994.5852676629775715
 30
0.0
 40
12.0
  1
and must be compared with the actual product
  0
TEXT
  5
2792
  8
0
 10
6650.1572366616774161
 20
-1014.5852676629780262
 30
0.0
 40
12.0
  1
which should always be present to ensure a
  0
TEXT
  5
2793
  8
0
 10
6650.1572366616774161
 20
-1034.5852676629770031
 30
0.0
 40
12.0
  1
perfect cut.Testing on a scrap piece before
  0
TEXT
  5
2794
  8
0
 10
6650.1572366616774161
 20
-1054.5852676629770031
 30
0.0
 40
12.0
  1
the final cut is always recommended.
  0
TEXT
  5
2795
  8
0
 10
6650.1572366616774161
 20
-1074.5852676629770031
 30
0.0
 40
12.0
  1
UKINOX IS NOT RESPONSIBLE FOR ANY IMPROPERLY
  0
TEXT
  5
2796
  8
0
 10
6650.1572366616774161
 20
-1094.5852676629770031
 30
0.0
 40
12.0
  1
CUT COUNTERTOP OR AN IMPROPER INSTALLATION.
  0
ENDBLK
  5
2797
  8
0
  0
BLOCK
  8
0
  2
*D470
 70
     1
 10
0.0
 20
0.0
 30
0.0
  3
*D470
  1

  0
LINE
  5
279A
  8
0
 62
     0
 10
3830.5952068540318578
 20
-1524.995919308835937
 30
0.0
 11
4728.5948366941156564
 21
-1524.995919308835937
 31
0.0
  0
SOLID
  5
279B
  8
0
 62
     0
 10
3830.5952068540318578
 20
-1522.495919308835937
 30
0.0
 11
3830.5952068540318578
 21
-1527.495919308835937
 31
0.0
 12
3815.5952068540318578
 22
-1524.995919308835937
 32
0.0
 13
3815.5952068540318578
 23
-1524.995919308835937
 33
0.0
  0
SOLID
  5
279C
  8
0
 62
     0
 10
4728.5948366941156564
 20
-1522.495919308835937
 30
0.0
 11
4728.5948366941156564
 21
-1527.495919308835937
 31
0.0
 12
4743.5948366941165659
 22
-1524.995919308835937
 32
0.0
 13
4743.5948366941165659
 23
-1524.995919308835937
 33
0.0
  0
INSERT
  5
279D
  8
0
  2
*U471
 10
0.0
 20
0.0
 30
0.0
  0
POINT
  5
279E
  8
DEFPOINTS
 62
     0
 10
3815.5952068540318578
 20
-1542.7177264248221036
 30
0.0
  0
POINT
  5
279F
  8
DEFPOINTS
 62
     0
 10
4743.5948366941165659
 20
-1560.502431137575968
 30
0.0
  0
POINT
  5
27A0
  8
DEFPOINTS
 62
     0
 10
4743.5948366941165659
 20
-1524.995919308835937
 30
0.0
  0
ENDBLK
  5
27A1
  8
0
  0
BLOCK
  8
0
  2
*U471
 70
     1
 10
0.0
 20
0.0
 30
0.0
  3
*U471
  1

  0
TEXT
  5
2BB5
  8
0
 62
     0
 10
4259.5950217740737571
 20
-1514.995919308835937
 30
0.0
 40
15.0
  1
928
  0
ENDBLK
  5
2BB7
  8
0
  0
BLOCK
  8
0
  2
*D472
 70
     1
 10
0.0
 20
0.0
 30
0.0
  3
*D472
  1

  0
LINE
  5
27A4
  8
0
 62
     0
 10
3776.2288226719879276
 20
-1564.1005332316628937
 30
0.0
 11
3776.2288226719879276
 21
-2078.1005332316631211
 31
0.0
  0
SOLID
  5
27A5
  8
0
 62
     0
 10
3773.7288226719879276
 20
-1564.1005332316628937
 30
0.0
 11
3778.7288226719870181
 21
-1564.1005332316628937
 31
0.0
 12
3776.2288226719879276
 22
-1549.1005332316619842
 32
0.0
 13
3776.2288226719879276
 23
-1549.1005332316619842
 33
0.0
  0
SOLID
  5
27A6
  8
0
 62
     0
 10
3773.7288226719879276
 20
-2078.1005332316631211
 30
0.0
 11
3778.7288226719870181
 21
-2078.1005332316631211
 31
0.0
 12
3776.2288226719879276
 22
-2093.1005332316631211
 32
0.0
 13
3776.2288226719879276
 23
-2093.1005332316631211
 33
0.0
  0
INSERT
  5
27A7
  8
0
  2
*U473
 10
0.0
 20
0.0
 30
0.0
  0
POINT
  5
27A8
  8
DEFPOINTS
 62
     0
 10
3827.0952068540359505
 20
-1549.1005332316619842
 30
0.0
  0
POINT
  5
27A9
  8
DEFPOINTS
 62
     0
 10
3827.0952068540359505
 20
-2093.1005332316631211
 30
0.0
  0
POINT
  5
27AA
  8
DEFPOINTS
 62
     0
 10
3776.2288226719879276
 20
-2093.1005332316631211
 30
0.0
  0
ENDBLK
  5
27AB
  8
0
  0
BLOCK
  8
0
  2
*U473
 70
     1
 10
0.0
 20
0.0
 30
0.0
  3
*U473
  1

  0
TEXT
  5
2BB9
  8
0
 62
     0
 10
3766.2288226719879276
 20
-1841.1005332316628937
 30
0.0
 40
15.0
  1
544
 50
90.0
  0
ENDBLK
  5
2BBB
  8
0
  0
BLOCK
  8
0
  2
*U474
 70
     1
 10
0.0
 20
0.0
 30
0.0
  3
*U474
  1

  0
TEXT
  5
27AE
  8
0
 62
     1
 10
6535.2910408698453466
 20
-117.3585305118754007
 30
0.0
 40
20.0
  1
zero reveal cut-out
  0
ENDBLK
  5
27AF
  8
0
  0
BLOCK
  8
0
  2
*D475
 70
     1
 10
0.0
 20
0.0
 30
0.0
  3
*D475
  1

  0
LINE
  5
281E
  8
0
 62
     0
 10
1897.4895737124820698
 20
-2982.2601225981620701
 30
0.0
 11
2795.4892035525681422
 21
-2982.2601225981620701
 31
0.0
  0
SOLID
  5
281F
  8
0
 62
     0
 10
1897.4895737124820698
 20
-2979.7601225981611606
 30
0.0
 11
1897.4895737124820698
 21
-2984.7601225981620701
 31
0.0
 12
1882.4895737124829793
 22
-2982.2601225981620701
 32
0.0
 13
1882.4895737124829793
 23
-2982.2601225981620701
 33
0.0
  0
SOLID
  5
2820
  8
0
 62
     0
 10
2795.4892035525681422
 20
-2979.7601225981611606
 30
0.0
 11
2795.4892035525681422
 21
-2984.7601225981620701
 31
0.0
 12
2810.4892035525667779
 22
-2982.2601225981620701
 32
0.0
 13
2810.4892035525667779
 23
-2982.2601225981620701
 33
0.0
  0
INSERT
  5
2821
  8
0
  2
*U476
 10
0.0
 20
0.0
 30
0.0
  0
POINT
  5
2822
  8
DEFPOINTS
 62
     0
 10
1882.4895737124829793
 20
-2999.9819297141470997
 30
0.0
  0
POINT
  5
2823
  8
DEFPOINTS
 62
     0
 10
2810.4892035525667779
 20
-3017.7666344269018737
 30
0.0
  0
POINT
  5
2824
  8
DEFPOINTS
 62
     0
 10
2810.4892035525667779
 20
-2982.2601225981620701
 30
0.0
  0
ENDBLK
  5
2813
  8
0
  0
BLOCK
  8
0
  2
*U476
 70
     1
 10
0.0
 20
0.0
 30
0.0
  3
*U476
  1

  0
TEXT
  5
2BD5
  8
0
 62
     0
 10
2326.4893886325248786
 20
-2972.2601225981620701
 30
0.0
 40
15.0
  1
928
  0
ENDBLK
  5
2BD7
  8
0
  0
BLOCK
  8
0
  2
*D477
 70
     1
 10
0.0
 20
0.0
 30
0.0
  3
*D477
  1

  0
LINE
  5
2825
  8
0
 62
     0
 10
1843.1231895304379123
 20
-3021.3647365209890268
 30
0.0
 11
1843.1231895304379123
 21
-3535.3647365209890268
 31
0.0
  0
SOLID
  5
2826
  8
0
 62
     0
 10
1840.6231895304370028
 20
-3021.3647365209890268
 30
0.0
 11
1845.6231895304379123
 21
-3021.3647365209890268
 31
0.0
 12
1843.1231895304379123
 22
-3006.3647365209899363
 32
0.0
 13
1843.1231895304379123
 23
-3006.3647365209899363
 33
0.0
  0
SOLID
  5
2827
  8
0
 62
     0
 10
1840.6231895304370028
 20
-3535.3647365209890268
 30
0.0
 11
1845.6231895304379123
 21
-3535.3647365209890268
 31
0.0
 12
1843.1231895304379123
 22
-3550.3647365209890268
 32
0.0
 13
1843.1231895304379123
 23
-3550.3647365209890268
 33
0.0
  0
INSERT
  5
2828
  8
0
  2
*U478
 10
0.0
 20
0.0
 30
0.0
  0
POINT
  5
2829
  8
DEFPOINTS
 62
     0
 10
1893.9895737124850257
 20
-3006.3647365209899363
 30
0.0
  0
POINT
  5
282A
  8
DEFPOINTS
 62
     0
 10
1893.9895737124850257
 20
-3550.3647365209890268
 30
0.0
  0
POINT
  5
282B
  8
DEFPOINTS
 62
     0
 10
1843.1231895304379123
 20
-3550.3647365209890268
 30
0.0
  0
ENDBLK
  5
281D
  8
0
  0
BLOCK
  8
0
  2
*U478
 70
     1
 10
0.0
 20
0.0
 30
0.0
  3
*U478
  1

  0
TEXT
  5
2BD9
  8
0
 62
     0
 10
1833.1231895304390491
 20
-3298.3647365209881173
 30
0.0
 40
15.0
  1
544
 50
90.0
  0
ENDBLK
  5
2BDB
  8
0
  0
BLOCK
  8
0
  2
*D479
 70
     1
 10
0.0
 20
0.0
 30
0.0
  3
*D479
  1

  0
LINE
  5
2842
  8
0
 62
     0
 10
2166.047334184281226
 20
-3419.8333426223521201
 30
0.0
 11
2122.6240008509471409
 21
-3419.8333426223512106
 31
0.0
  0
LINE
  5
2843
  8
0
 62
     0
 10
2122.6240008509471409
 20
-3419.8333426223512106
 30
0.0
 11
2035.13887071057502
 21
-3454.4279948973248793
 31
0.0
  0
INSERT
  5
2844
  8
0
  2
*U480
 10
0.0
 20
0.0
 30
0.0
  0
SOLID
  5
2845
  8
0
 62
     0
 10
2034.2195509457890239
 20
-3452.103161318319053
 30
0.0
 11
2036.0581904753610161
 21
-3456.7528284763311603
 31
0.0
 12
2021.1898692365380157
 22
-3459.9439134860399463
 32
0.0
 13
2021.1898692365380157
 23
-3459.9439134860399463
 33
0.0
  0
POINT
  5
2846
  8
DEFPOINTS
 62
     0
 10
2021.1898692365380157
 20
-3459.9439134860399463
 30
0.0
  0
POINT
  5
2847
  8
DEFPOINTS
 62
     0
 10
2030.4892035525570009
 20
-3456.2666344268991452
 30
0.0
  0
ENDBLK
  5
2848
  8
0
  0
BLOCK
  8
0
  2
*U480
 70
     1
 10
0.0
 20
0.0
 30
0.0
  3
*U480
  1

  0
TEXT
  5
2BE9
  8
0
 62
     0
 10
2122.7140008509468316
 20
-3419.7433426223528841
 30
0.0
 40
20.0
  1
R10
  0
ENDBLK
  5
2BEB
  8
0
  0
BLOCK
  8
0
  2
*D481
 70
     1
 10
0.0
 20
0.0
 30
0.0
  3
*D481
  1

  0
LINE
  5
284B
  8
0
 62
     0
 10
2035.4892035525640495
 20
-2983.1664910514500662
 30
0.0
 11
2795.489203552564959
 21
-2983.1664910514500662
 31
0.0
  0
SOLID
  5
284C
  8
0
 62
     0
 10
2035.4892035525640495
 20
-2980.6664910514500662
 30
0.0
 11
2035.4892035525640495
 21
-2985.6664910514500662
 31
0.0
 12
2020.4892035525640495
 22
-2983.1664910514500662
 32
0.0
 13
2020.4892035525640495
 23
-2983.1664910514500662
 33
0.0
  0
SOLID
  5
284D
  8
0
 62
     0
 10
2795.489203552564959
 20
-2980.6664910514500662
 30
0.0
 11
2795.489203552564959
 21
-2985.6664910514500662
 31
0.0
 12
2810.489203552564959
 22
-2983.1664910514500662
 32
0.0
 13
2810.489203552564959
 23
-2983.1664910514500662
 33
0.0
  0
INSERT
  5
284E
  8
0
  2
*U482
 10
0.0
 20
0.0
 30
0.0
  0
POINT
  5
284F
  8
DEFPOINTS
 62
     0
 10
2020.4892035525640495
 20
-3285.5166344269000547
 30
0.0
  0
POINT
  5
2850
  8
DEFPOINTS
 62
     0
 10
2810.489203552564959
 20
-3288.375391240359022
 30
0.0
  0
POINT
  5
2851
  8
DEFPOINTS
 62
     0
 10
2810.489203552564959
 20
-2983.1664910514500662
 30
0.0
  0
ENDBLK
  5
2852
  8
0
  0
BLOCK
  8
0
  2
*U482
 70
     1
 10
0.0
 20
0.0
 30
0.0
  3
*U482
  1

  0
TEXT
  5
2BED
  8
0
 62
     0
 10
2381.7392035525640495
 20
-2973.1664910514500662
 30
0.0
 40
15.0
  1
790mm
  0
ENDBLK
  5
2BEF
  8
0
  0
BLOCK
  8
0
  2
*D483
 70
     1
 10
0.0
 20
0.0
 30
0.0
  3
*D483
  1

  0
LINE
  5
2855
  8
0
 62
     0
 10
1913.4698905203829327
 20
-3073.2666344269009642
 30
0.0
 11
1913.4698905203829327
 21
-3451.2666344269018737
 31
0.0
  0
SOLID
  5
2856
  8
0
 62
     0
 10
1910.9698905203840695
 20
-3073.2666344269009642
 30
0.0
 11
1915.9698905203840695
 21
-3073.2666344269009642
 31
0.0
 12
1913.4698905203829327
 22
-3058.2666344269018737
 32
0.0
 13
1913.4698905203829327
 23
-3058.2666344269018737
 33
0.0
  0
SOLID
  5
2857
  8
0
 62
     0
 10
1910.9698905203840695
 20
-3451.2666344269018737
 30
0.0
 11
1915.9698905203840695
 21
-3451.2666344269018737
 31
0.0
 12
1913.4698905203829327
 22
-3466.2666344269009642
 32
0.0
 13
1913.4698905203829327
 23
-3466.2666344269009642
 33
0.0
  0
INSERT
  5
2858
  8
0
  2
*U484
 10
0.0
 20
0.0
 30
0.0
  0
POINT
  5
2859
  8
DEFPOINTS
 62
     0
 10
2414.1892035525647771
 20
-3058.2666344269018737
 30
0.0
  0
POINT
  5
285A
  8
DEFPOINTS
 62
     0
 10
2414.1892035525638676
 20
-3466.2666344269009642
 30
0.0
  0
POINT
  5
285B
  8
DEFPOINTS
 62
     0
 10
1913.4698905203829327
 20
-3466.2666344269009642
 30
0.0
  0
ENDBLK
  5
285C
  8
0
  0
BLOCK
  8
0
  2
*U484
 70
     1
 10
0.0
 20
0.0
 30
0.0
  3
*U484
  1

  0
TEXT
  5
2BF1
  8
0
 62
     0
 10
1903.469890520384979
 20
-3296.0166344269009642
 30
0.0
 40
15.0
  1
408mm
 50
90.0
  0
ENDBLK
  5
2BF3
  8
0
  0
BLOCK
  8
0
  2
*U485
 70
     1
 10
0.0
 20
0.0
 30
0.0
  3
*U485
  1

  0
TEXT
  5
285F
  8
0
 10
5539.6052838558516669
 20
-1042.4231297877290672
 30
0.0
 40
17.0
  1
TOPZERO
  0
TEXT
  5
2860
  8
0
 10
5539.6052838558516669
 20
-1070.7564631210620973
 30
0.0
 40
17.0
  1
www.topzero.com
  0
ENDBLK
  5
2861
  8
0
  0
BLOCK
  8
0
  2
*U486
 70
     1
 10
0.0
 20
0.0
 30
0.0
  3
*U486
  1

  0
TEXT
  5
2864
  8
0
 10
6065.0260712844983573
 20
-1029.8389845157200853
 30
0.0
 40
18.0
  1
32''  LARGEEQUAL DOUBLE BOWL
  0
ENDBLK
  5
2865
  8
0
  0
BLOCK
  8
0
  2
*U487
 70
     1
 10
0.0
 20
0.0
 30
0.0
  3
*U487
  1

  0
TEXT
  5
2868
  8
0
 10
5882.1608490939297553
 20
-1137.3444490639180913
 30
0.0
 40
15.0
  1
Stainless
  0
TEXT
  5
2869
  8
0
 10
5882.1608490939297553
 20
-1162.3444490639180913
 30
0.0
 40
15.0
  1
steel
  0
ENDBLK
  5
286A
  8
0
  0
BLOCK
  8
0
  2
*U488
 70
     1
 10
0.0
 20
0.0
 30
0.0
  3
*U488
  1

  0
TEXT
  5
286D
  8
0
 10
6758.7067852180161935
 20
-1153.0398136992980653
 30
0.0
 40
20.0
  1
10/2020
  0
ENDBLK
  5
286E
  8
0
  0
BLOCK
  8
0
  2
*U489
 70
     1
 10
0.0
 20
0.0
 30
0.0
  3
*U489
  1

  0
TEXT
  5
2871
  8
0
 10
6913.7477687559248807
 20
-21.003229271015929
 30
0.0
 40
20.0
  1
mm
  0
TEXT
  5
2872
  8
0
 10
6887.0811020892579108
 20
-54.3365626043492611
 30
0.0
 40
20.0
  1
[
  0
TEXT
  5
2873
  8
0
 10
6900.414435422590941
 20
-54.3365626043492611
 30
0.0
 40
20.0
  1
inch
  0
TEXT
  5
2874
  8
0
 10
6967.0811020892588203
 20
-54.3365626043492611
 30
0.0
 40
20.0
  1
]
  0
ENDBLK
  5
2875
  8
0
  0
BLOCK
  8
0
  2
*U490
 70
     1
 10
0.0
 20
0.0
 30
0.0
  3
*U490
  1

  0
TEXT
  5
2878
  8
0
 10
6650.1572366616774161
 20
-974.5852676629779126
 30
0.0
 40
12.0
  1
This template file is meant to be a guideline
  0
TEXT
  5
2879
  8
0
 10
6650.1572366616774161
 20
-994.5852676629775715
 30
0.0
 40
12.0
  1
and must be compared with the actual product
  0
TEXT
  5
287A
  8
0
 10
6650.1572366616774161
 20
-1014.5852676629780262
 30
0.0
 40
12.0
  1
which should always be present to ensure a
  0
TEXT
  5
287B
  8
0
 10
6650.1572366616774161
 20
-1034.5852676629770031
 30
0.0
 40
12.0
  1
perfect cut.Testing on a scrap piece before
  0
TEXT
  5
287C
  8
0
 10
6650.1572366616774161
 20
-1054.5852676629770031
 30
0.0
 40
12.0
  1
the final cut is always recommended.
  0
TEXT
  5
287D
  8
0
 10
6650.1572366616774161
 20
-1074.5852676629770031
 30
0.0
 40
12.0
  1
UKINOX IS NOT RESPONSIBLE FOR ANY IMPROPERLY
  0
TEXT
  5
287E
  8
0
 10
6650.1572366616774161
 20
-1094.5852676629770031
 30
0.0
 40
12.0
  1
CUT COUNTERTOP OR AN IMPROPER INSTALLATION.
  0
ENDBLK
  5
287F
  8
0
  0
BLOCK
  8
0
  2
*U491
 70
     1
 10
0.0
 20
0.0
 30
0.0
  3
*U491
  1

  0
TEXT
  5
2882
  8
0
 62
     1
 10
6535.2910408698453466
 20
-117.3585305118754007
 30
0.0
 40
20.0
  1
zero reveal cut-out
  0
ENDBLK
  5
2883
  8
0
  0
BLOCK
  8
0
  2
*D492
 70
     1
 10
0.0
 20
0.0
 30
0.0
  3
*D492
  1

  0
LINE
  5
2BFC
  8
0
 62
     0
 10
4113.1858150642538021
 20
-3372.0106875143487741
 30
0.0
 11
4046.4291483975889605
 21
-3372.0106875143487741
 31
0.0
  0
LINE
  5
2BFD
  8
0
 62
     0
 10
4046.4291483975889605
 20
-3372.0106875143487741
 30
0.0
 11
3958.9440182572129743
 21
-3406.6053397893251713
 31
0.0
  0
TEXT
  5
2C85
  8
0
 62
     0
 10
4039.8499999999999091
 20
-3397.3200000000010732
 30
0.0
 40
20.0
  1
R11.5
  0
SOLID
  5
2BFF
  8
0
 62
     0
 10
3958.0246984924260687
 20
-3404.2805062103179807
 30
0.0
 11
3959.8633380219989704
 21
-3408.9301733683291786
 31
0.0
 12
3944.9950167831771068
 22
-3412.1212583780379646
 32
0.0
 13
3944.9950167831771068
 23
-3412.1212583780379646
 33
0.0
  0
POINT
  5
2C00
  8
DEFPOINTS
 62
     0
 10
3944.9950167831771068
 20
-3412.1212583780379646
 30
0.0
  0
POINT
  5
2C01
  8
DEFPOINTS
 62
     0
 10
3954.2943510991931362
 20
-3408.443979318898073
 30
0.0
  0
ENDBLK
  5
28F6
  8
0
  0
BLOCK
  8
0
  2
*D493
 70
     1
 10
0.0
 20
0.0
 30
0.0
  3
*D493
  1

  0
LINE
  5
2C02
  8
0
 62
     0
 10
3959.2943510991999574
 20
-2935.3438359434480844
 30
0.0
 11
4719.2943510991999574
 21
-2935.3438359434480844
 31
0.0
  0
SOLID
  5
2C03
  8
0
 62
     0
 10
3959.2943510991999574
 20
-2932.8438359434480844
 30
0.0
 11
3959.2943510991999574
 21
-2937.8438359434489939
 31
0.0
 12
3944.2943510991999574
 22
-2935.3438359434480844
 32
0.0
 13
3944.2943510991999574
 23
-2935.3438359434480844
 33
0.0
  0
SOLID
  5
2C04
  8
0
 62
     0
 10
4719.2943510991999574
 20
-2932.8438359434480844
 30
0.0
 11
4719.2943510991999574
 21
-2937.8438359434489939
 31
0.0
 12
4734.2943510991999574
 22
-2935.3438359434480844
 32
0.0
 13
4734.2943510991999574
 23
-2935.3438359434480844
 33
0.0
  0
TEXT
  5
2C86
  8
0
 62
     0
 10
4309.2899999999990541
 20
-2944.3899999999998727
 30
0.0
 40
15.0
  1
790mm
  0
POINT
  5
2C06
  8
DEFPOINTS
 62
     0
 10
3944.2943510991999574
 20
-3237.693979318898073
 30
0.0
  0
POINT
  5
2C07
  8
DEFPOINTS
 62
     0
 10
4734.2943510991999574
 20
-3240.5527361323561308
 30
0.0
  0
POINT
  5
2C08
  8
DEFPOINTS
 62
     0
 10
4734.2943510991999574
 20
-2935.3438359434480844
 30
0.0
  0
ENDBLK
  5
2900
  8
0
  0
BLOCK
  8
0
  2
*D494
 70
     1
 10
0.0
 20
0.0
 30
0.0
  3
*D494
  1

  0
LINE
  5
2C09
  8
0
 62
     0
 10
3837.275038067020887
 20
-3025.4439793188989825
 30
0.0
 11
3837.275038067020887
 21
-3403.4439793188989825
 31
0.0
  0
SOLID
  5
2C0A
  8
0
 62
     0
 10
3834.7750380670217965
 20
-3025.4439793188989825
 30
0.0
 11
3839.775038067020887
 21
-3025.4439793188989825
 31
0.0
 12
3837.275038067020887
 22
-3010.4439793188989825
 32
0.0
 13
3837.275038067020887
 23
-3010.4439793188989825
 33
0.0
  0
SOLID
  5
2C0B
  8
0
 62
     0
 10
3834.7750380670217965
 20
-3403.4439793188989825
 30
0.0
 11
3839.775038067020887
 21
-3403.4439793188989825
 31
0.0
 12
3837.275038067020887
 22
-3418.4439793189008014
 32
0.0
 13
3837.275038067020887
 23
-3418.4439793189008014
 33
0.0
  0
TEXT
  5
2C87
  8
0
 62
     0
 10
3789.7800000000002001
 20
-3240.9899999999997817
 30
0.0
 40
15.0
  1
408mm
  0
POINT
  5
2C0D
  8
DEFPOINTS
 62
     0
 10
4337.9943510991997755
 20
-3010.4439793188989825
 30
0.0
  0
POINT
  5
2C0E
  8
DEFPOINTS
 62
     0
 10
4337.9943510991997755
 20
-3418.4439793189008014
 30
0.0
  0
POINT
  5
2C0F
  8
DEFPOINTS
 62
     0
 10
3837.275038067020887
 20
-3418.4439793189008014
 30
0.0
  0
ENDBLK
  5
290A
  8
0
  0
BLOCK
  8
0
  2
*U495
 70
     1
 10
0.0
 20
0.0
 30
0.0
  3
*U495
  1

  0
TEXT
  5
2945
  8
0
 10
3585.0515180150009655
 20
-1042.4231291866519769
 30
0.0
 40
17.0
  1
TOPZERO
  0
TEXT
  5
2946
  8
0
 10
3585.0515180150009655
 20
-1070.7564625199859165
 30
0.0
 40
17.0
  1
www.topzero.com
  0
ENDBLK
  5
2947
  8
0
  0
BLOCK
  8
0
  2
*U496
 70
     1
 10
0.0
 20
0.0
 30
0.0
  3
*U496
  1

  0
TEXT
  5
294A
  8
0
 10
4110.4723054436462917
 20
-1029.8389839146439044
 30
0.0
 40
18.0
  1
36''  LARGEEQUAL DOUBLE BOWL
  0
ENDBLK
  5
294B
  8
0
  0
BLOCK
  8
0
  2
*U497
 70
     1
 10
0.0
 20
0.0
 30
0.0
  3
*U497
  1

  0
TEXT
  5
294E
  8
0
 10
3927.607083253080873
 20
-1137.3444484628419104
 30
0.0
 40
15.0
  1
Stainless
  0
TEXT
  5
294F
  8
0
 10
3927.607083253080873
 20
-1162.3444484628419104
 30
0.0
 40
15.0
  1
steel
  0
ENDBLK
  5
2950
  8
0
  0
BLOCK
  8
0
  2
*U498
 70
     1
 10
0.0
 20
0.0
 30
0.0
  3
*U498
  1

  0
TEXT
  5
2953
  8
0
 10
4804.1530193771650374
 20
-1153.0398130982221119
 30
0.0
 40
20.0
  1
10/2020
  0
ENDBLK
  5
2954
  8
0
  0
BLOCK
  8
0
  2
*U499
 70
     1
 10
0.0
 20
0.0
 30
0.0
  3
*U499
  1

  0
TEXT
  5
2957
  8
0
 10
4959.1940029150737246
 20
-21.0032286699399684
 30
0.0
 40
20.0
  1
mm
  0
TEXT
  5
2958
  8
0
 10
4932.5273362484085737
 20
-54.3365620032732792
 30
0.0
 40
20.0
  1
[
  0
TEXT
  5
2959
  8
0
 10
4945.8606695817397849
 20
-54.3365620032732792
 30
0.0
 40
20.0
  1
inch
  0
TEXT
  5
295A
  8
0
 10
5012.5273362484085737
 20
-54.3365620032732792
 30
0.0
 40
20.0
  1
]
  0
ENDBLK
  5
295B
  8
0
  0
BLOCK
  8
0
  2
*U500
 70
     1
 10
0.0
 20
0.0
 30
0.0
  3
*U500
  1

  0
TEXT
  5
295E
  8
0
 10
4695.60347082082626
 20
-974.5852670619015043
 30
0.0
 40
12.0
  1
This template file is meant to be a guideline
  0
TEXT
  5
295F
  8
0
 10
4695.60347082082626
 20
-994.5852670619007085
 30
0.0
 40
12.0
  1
and must be compared with the actual product
  0
TEXT
  5
2960
  8
0
 10
4695.60347082082626
 20
-1014.5852670619010496
 30
0.0
 40
12.0
  1
which should always be present to ensure a
  0
TEXT
  5
2961
  8
0
 10
4695.60347082082626
 20
-1034.5852670619019591
 30
0.0
 40
12.0
  1
perfect cut.Testing on a scrap piece before
  0
TEXT
  5
2962
  8
0
 10
4695.60347082082626
 20
-1054.5852670619019591
 30
0.0
 40
12.0
  1
the final cut is always recommended.
  0
TEXT
  5
2963
  8
0
 10
4695.60347082082626
 20
-1074.5852670619019591
 30
0.0
 40
12.0
  1
UKINOX IS NOT RESPONSIBLE FOR ANY IMPROPERLY
  0
TEXT
  5
2964
  8
0
 10
4695.60347082082626
 20
-1094.5852670619010496
 30
0.0
 40
12.0
  1
CUT COUNTERTOP OR AN IMPROPER INSTALLATION.
  0
ENDBLK
  5
2965
  8
0
  0
BLOCK
  8
0
  2
*U501
 70
     1
 10
0.0
 20
0.0
 30
0.0
  3
*U501
  1

  0
TEXT
  5
2968
  8
0
 62
     1
 10
6535.2910408698453466
 20
-117.3585305118754007
 30
0.0
 40
20.0
  1
zero reveal cut-out
  0
ENDBLK
  5
2969
  8
0
  0
BLOCK
  8
0
  2
*D502
 70
     1
 10
0.0
 20
0.0
 30
0.0
  3
*D502
  1

  0
LINE
  5
296C
  8
0
 62
     0
 10
2223.0366509768759897
 20
-236.6878253305586099
 30
0.0
 11
2656.0366509768750802
 21
-236.6878253305586099
 31
0.0
  0
SOLID
  5
296D
  8
0
 62
     0
 10
2223.0366509768759897
 20
-234.1878253305586099
 30
0.0
 11
2223.0366509768759897
 21
-239.1878253305586099
 31
0.0
 12
2208.0366509768759897
 22
-236.6878253305586099
 32
0.0
 13
2208.0366509768759897
 23
-236.6878253305586099
 33
0.0
  0
SOLID
  5
296E
  8
0
 62
     0
 10
2656.0366509768750802
 20
-234.1878253305586099
 30
0.0
 11
2656.0366509768750802
 21
-239.1878253305586099
 31
0.0
 12
2671.0366509768750802
 22
-236.6878253305586099
 32
0.0
 13
2671.0366509768750802
 23
-236.6878253305586099
 33
0.0
  0
INSERT
  5
296F
  8
0
  2
*U503
 10
0.0
 20
0.0
 30
0.0
  0
POINT
  5
2970
  8
DEFPOINTS
 62
     0
 10
2208.0366509768759897
 20
-265.6154250230820253
 30
0.0
  0
POINT
  5
2971
  8
DEFPOINTS
 62
     0
 10
2671.0366509768750802
 20
-246.5782191309409086
 30
0.0
  0
POINT
  5
2972
  8
DEFPOINTS
 62
     0
 10
2671.0366509768750802
 20
-236.6878253305586099
 30
0.0
  0
ENDBLK
  5
2973
  8
0
  0
BLOCK
  8
0
  2
*U503
 70
     1
 10
0.0
 20
0.0
 30
0.0
  3
*U503
  1

  0
TEXT
  5
2C42
  8
0
 62
     0
 10
2419.5366509768759897
 20
-226.6878253305586099
 30
0.0
 40
15.0
  1
463
  0
ENDBLK
  5
2C44
  8
0
  0
BLOCK
  8
0
  2
*D504
 70
     1
 10
0.0
 20
0.0
 30
0.0
  3
*D504
  1

  0
LINE
  5
2976
  8
0
 62
     0
 10
2185.5058270445219932
 20
-269.1154250230820821
 30
0.0
 11
2185.5058270445219932
 21
-548.1154250230820253
 31
0.0
  0
SOLID
  5
2977
  8
0
 62
     0
 10
2183.0058270445219932
 20
-269.1154250230820821
 30
0.0
 11
2188.0058270445219932
 21
-269.1154250230820821
 31
0.0
 12
2185.5058270445219932
 22
-254.1154250230819969
 32
0.0
 13
2185.5058270445219932
 23
-254.1154250230819969
 33
0.0
  0
SOLID
  5
2978
  8
0
 62
     0
 10
2183.0058270445219932
 20
-548.1154250230820253
 30
0.0
 11
2188.0058270445219932
 21
-548.1154250230820253
 31
0.0
 12
2185.5058270445219932
 22
-563.1154250230820253
 32
0.0
 13
2185.5058270445219932
 23
-563.1154250230820253
 33
0.0
  0
INSERT
  5
2979
  8
0
  2
*U505
 10
0.0
 20
0.0
 30
0.0
  0
POINT
  5
297A
  8
DEFPOINTS
 62
     0
 10
2201.9760712977517869
 20
-254.1154250230819969
 30
0.0
  0
POINT
  5
297B
  8
DEFPOINTS
 62
     0
 10
2219.5366509768741707
 20
-563.1154250230820253
 30
0.0
  0
POINT
  5
297C
  8
DEFPOINTS
 62
     0
 10
2185.5058270445219932
 20
-563.1154250230820253
 30
0.0
  0
ENDBLK
  5
297D
  8
0
  0
BLOCK
  8
0
  2
*U505
 70
     1
 10
0.0
 20
0.0
 30
0.0
  3
*U505
  1

  0
TEXT
  5
2C46
  8
0
 62
     0
 10
2175.5058270445219932
 20
-427.3654250230816842
 30
0.0
 40
15.0
  1
309
 50
90.0
  0
ENDBLK
  5
2C48
  8
0
  0
BLOCK
  8
0
  2
*D506
 70
     1
 10
0.0
 20
0.0
 30
0.0
  3
*D506
  1

  0
LINE
  5
29EC
  8
0
 62
     0
 10
2172.9948950472507931
 20
-1746.1252289711680987
 30
0.0
 11
2605.9948950472489742
 21
-1746.1252289711680987
 31
0.0
  0
SOLID
  5
29ED
  8
0
 62
     0
 10
2172.9948950472507931
 20
-1743.6252289711680987
 30
0.0
 11
2172.9948950472507931
 21
-1748.6252289711680987
 31
0.0
 12
2157.9948950472498836
 22
-1746.1252289711680987
 32
0.0
 13
2157.9948950472498836
 23
-1746.1252289711680987
 33
0.0
  0
SOLID
  5
29EE
  8
0
 62
     0
 10
2605.9948950472489742
 20
-1743.6252289711680987
 30
0.0
 11
2605.9948950472489742
 21
-1748.6252289711680987
 31
0.0
 12
2620.9948950472489742
 22
-1746.1252289711680987
 32
0.0
 13
2620.9948950472489742
 23
-1746.1252289711680987
 33
0.0
  0
INSERT
  5
29EF
  8
0
  2
*U507
 10
0.0
 20
0.0
 30
0.0
  0
POINT
  5
29F0
  8
DEFPOINTS
 62
     0
 10
2157.9948950472498836
 20
-1775.0528286636920257
 30
0.0
  0
POINT
  5
29F1
  8
DEFPOINTS
 62
     0
 10
2620.9948950472489742
 20
-1756.0156227715499426
 30
0.0
  0
POINT
  5
29F2
  8
DEFPOINTS
 62
     0
 10
2620.9948950472489742
 20
-1746.1252289711680987
 30
0.0
  0
ENDBLK
  5
29E1
  8
0
  0
BLOCK
  8
0
  2
*U507
 70
     1
 10
0.0
 20
0.0
 30
0.0
  3
*U507
  1

  0
TEXT
  5
2C76
  8
0
 62
     0
 10
2369.4948950472498836
 20
-1736.1252289711680987
 30
0.0
 40
15.0
  1
463
  0
ENDBLK
  5
2C78
  8
0
  0
BLOCK
  8
0
  2
*D508
 70
     1
 10
0.0
 20
0.0
 30
0.0
  3
*D508
  1

  0
LINE
  5
29F3
  8
0
 62
     0
 10
2135.4640711148958871
 20
-1778.5528286636908888
 30
0.0
 11
2135.4640711148958871
 21
-2057.5528286636917983
 31
0.0
  0
SOLID
  5
29F4
  8
0
 62
     0
 10
2132.9640711148958871
 20
-1778.5528286636908888
 30
0.0
 11
2137.9640711148958871
 21
-1778.5528286636908888
 31
0.0
 12
2135.4640711148958871
 22
-1763.5528286636920257
 32
0.0
 13
2135.4640711148958871
 23
-1763.5528286636920257
 33
0.0
  0
SOLID
  5
29F5
  8
0
 62
     0
 10
2132.9640711148958871
 20
-2057.5528286636917983
 30
0.0
 11
2137.9640711148958871
 21
-2057.5528286636917983
 31
0.0
 12
2135.4640711148958871
 22
-2072.5528286636917983
 32
0.0
 13
2135.4640711148958871
 23
-2072.5528286636917983
 33
0.0
  0
INSERT
  5
29F6
  8
0
  2
*U509
 10
0.0
 20
0.0
 30
0.0
  0
POINT
  5
29F7
  8
DEFPOINTS
 62
     0
 10
2151.9343153681261356
 20
-1763.5528286636920257
 30
0.0
  0
POINT
  5
29F8
  8
DEFPOINTS
 62
     0
 10
2169.4948950472489742
 20
-2072.5528286636917983
 30
0.0
  0
POINT
  5
29F9
  8
DEFPOINTS
 62
     0
 10
2135.4640711148958871
 20
-2072.5528286636917983
 30
0.0
  0
ENDBLK
  5
29EB
  8
0
  0
BLOCK
  8
0
  2
*U509
 70
     1
 10
0.0
 20
0.0
 30
0.0
  3
*U509
  1

  0
TEXT
  5
2C7A
  8
0
 62
     0
 10
2125.4640711148967966
 20
-1936.8028286636920257
 30
0.0
 40
15.0
  1
309
 50
90.0
  0
ENDBLK
  5
2C7C
  8
0
  0
BLOCK
  8
0
  2
*U510
 70
     1
 10
0.0
 20
0.0
 30
0.0
  3
*U510
  1

  0
TEXT
  5
2A39
  8
0
 10
6123.3666892513429048
 20
-1145.5112595480220534
 30
0.0
 40
25.0
  1
TZ M826
  0
ENDBLK
  5
2A3B
  8
0
  0
BLOCK
  8
0
  2
*U511
 70
     1
 10
0.0
 20
0.0
 30
0.0
  3
*U511
  1

  0
TEXT
  5
2A49
  8
0
 10
643.3080660676388334
 20
74.0309804218122736
 30
0.0
 40
25.0
  1
TZ M826
  0
ENDBLK
  5
2A4B
  8
0
  0
BLOCK
  8
0
  2
*U512
 70
     1
 10
0.0
 20
0.0
 30
0.0
  3
*U512
  1

  0
TEXT
  5
2A51
  8
0
 10
6139.9763604350473543
 20
-2567.6072477602979234
 30
0.0
 40
25.0
  1
TZ WS788
  0
ENDBLK
  5
2A53
  8
0
  0
BLOCK
  8
0
  2
*U513
 70
     1
 10
0.0
 20
0.0
 30
0.0
  3
*U513
  1

  0
TEXT
  5
2A5D
  8
0
 62
     1
 10
6191.4706100565699671
 20
-1426.2778075782960059
 30
0.0
 40
20.0
  1
31
  0
TEXT
  5
2A5E
  8
0
 62
     1
 10
6227.137276723236937
 20
-1413.9444742449629757
 30
0.0
 40
14.0
  1
1
  0
LINE
  5
2A5F
  8
0
 62
     1
 10
6224.8039433899039068
 20
-1416.2778075782960059
 30
0.0
 11
6234.137276723236937
 21
-1416.2778075782960059
 31
0.0
  0
TEXT
  5
2A60
  8
0
 62
     1
 10
6224.8039433899039068
 20
-1432.6111409116299455
 30
0.0
 40
14.0
  1
8
  0
TEXT
  5
2A61
  8
0
 62
     1
 10
6238.8039433899029973
 20
-1426.2808075782970718
 30
0.0
 40
20.0060000000000002
  1
''
  0
ENDBLK
  5
2A63
  8
0
  0
BLOCK
  8
0
  2
*U514
 70
     1
 10
0.0
 20
0.0
 30
0.0
  3
*U514
  1

  0
TEXT
  5
2A65
  8
0
 62
     1
 10
0.0
 20
6.3333334570603874
 30
0.0
 40
20.0
  1
31
  0
TEXT
  5
2A66
  8
0
 62
     1
 10
35.6666666666666572
 20
18.6666667903937196
 30
0.0
 40
14.0
  1
1
  0
LINE
  5
2A67
  8
0
 62
     1
 10
33.3333333333333286
 20
16.333333457060391
 30
0.0
 11
42.666666666666643
 21
16.333333457060391
 31
0.0
  0
TEXT
  5
2A68
  8
0
 62
     1
 10
33.3333333333333286
 20
0.0000001237270562
 30
0.0
 40
14.0
  1
8
  0
TEXT
  5
2A69
  8
0
 62
     1
 10
47.3333333333333286
 20
6.3303334570603873
 30
0.0
 40
20.0060000000000002
  1
''
  0
ENDBLK
  5
2A6B
  8
0
  0
BLOCK
  8
0
  2
*U515
 70
     1
 10
0.0
 20
0.0
 30
0.0
  3
*U515
  1

  0
TEXT
  5
2A6D
  8
0
 62
     1
 10
26.3333333272233503
 20
0.0000001237267481
 30
0.0
 40
20.0
  1
17
 50
90.0
  0
TEXT
  5
2A6E
  8
0
 62
     1
 10
13.9999999938900093
 20
35.6666667903934211
 30
0.0
 40
14.0
  1
1
 50
90.0
  0
LINE
  5
2A6F
  8
0
 62
     1
 10
16.3333333272233396
 20
33.3333334570600783
 30
0.0
 11
16.3333333272233396
 21
42.6666667903934069
 31
0.0
  0
TEXT
  5
2A70
  8
0
 62
     1
 10
32.6666666605566789
 20
33.3333334570600783
 30
0.0
 40
14.0
  1
8
 50
90.0
  0
TEXT
  5
2A71
  8
0
 62
     1
 10
26.3363333272233611
 20
47.333333457060057
 30
0.0
 40
20.0060000000000002
  1
''
 50
90.0
  0
ENDBLK
  5
2A73
  8
0
  0
BLOCK
  8
0
  2
*U516
 70
     1
 10
0.0
 20
0.0
 30
0.0
  3
*U516
  1

  0
TEXT
  5
2A75
  8
0
 62
     1
 10
5679.4622303066971654
 20
-1659.730547950880009
 30
0.0
 40
20.0
  1
17
 50
90.0
  0
TEXT
  5
2A76
  8
0
 62
     1
 10
5667.1288969733632257
 20
-1624.0638812842139487
 30
0.0
 40
14.0
  1
1
 50
90.0
  0
LINE
  5
2A77
  8
0
 62
     1
 10
5669.4622303066953464
 20
-1626.3972146175469788
 30
0.0
 11
5669.4622303066953464
 21
-1617.0638812842139487
 31
0.0
  0
TEXT
  5
2A78
  8
0
 62
     1
 10
5685.795563640031105
 20
-1626.3972146175469788
 30
0.0
 40
14.0
  1
8
 50
90.0
  0
TEXT
  5
2A79
  8
0
 62
     1
 10
5679.4652303066959576
 20
-1612.3972146175469788
 30
0.0
 40
20.0060000000000002
  1
''
 50
90.0
  0
ENDBLK
  5
2A7B
  8
0
  0
BLOCK
  8
0
  2
*U517
 70
     1
 10
0.0
 20
0.0
 30
0.0
  3
*U517
  1

  0
TEXT
  5
2A7D
  8
0
 62
     1
 10
538.3417130770975518
 20
233.452740496310696
 30
0.0
 40
20.0
  1
31
  0
TEXT
  5
2A7E
  8
0
 62
     1
 10
574.0083797437642943
 20
245.7860738296440104
 30
0.0
 40
14.0
  1
1
  0
LINE
  5
2A7F
  8
0
 62
     1
 10
571.6750464104310367
 20
243.452740496310696
 30
0.0
 11
581.0083797437641806
 21
243.452740496310696
 31
0.0
  0
TEXT
  5
2A80
  8
0
 62
     1
 10
571.6750464104310367
 20
227.1194071629774101
 30
0.0
 40
14.0
  1
8
  0
TEXT
  5
2A81
  8
0
 62
     1
 10
585.6750464104310367
 20
233.4497404963107101
 30
0.0
 40
20.0060000000000002
  1
''
  0
ENDBLK
  5
2A83
  8
0
  0
BLOCK
  8
0
  2
*U518
 70
     1
 10
0.0
 20
0.0
 30
0.0
  3
*U518
  1

  0
TEXT
  5
2A85
  8
0
 62
     1
 10
26.3333333272233503
 20
0.0000001237267481
 30
0.0
 40
20.0
  1
17
 50
90.0
  0
TEXT
  5
2A86
  8
0
 62
     1
 10
13.9999999938900093
 20
35.6666667903934211
 30
0.0
 40
14.0
  1
1
 50
90.0
  0
LINE
  5
2A87
  8
0
 62
     1
 10
16.3333333272233396
 20
33.3333334570600783
 30
0.0
 11
16.3333333272233396
 21
42.6666667903934069
 31
0.0
  0
TEXT
  5
2A88
  8
0
 62
     1
 10
32.6666666605566789
 20
33.3333334570600783
 30
0.0
 40
14.0
  1
8
 50
90.0
  0
TEXT
  5
2A89
  8
0
 62
     1
 10
26.3363333272233611
 20
47.333333457060057
 30
0.0
 40
20.0060000000000002
  1
''
 50
90.0
  0
ENDBLK
  5
2A8B
  8
0
  0
BLOCK
  8
0
  2
*U519
 70
     1
 10
0.0
 20
0.0
 30
0.0
  3
*U519
  1

  0
TEXT
  5
2A8D
  8
0
 62
     1
 10
26.3333333272233503
 20
0.0000001237267481
 30
0.0
 40
20.0
  1
17
 50
90.0
  0
TEXT
  5
2A8E
  8
0
 62
     1
 10
13.9999999938900093
 20
35.6666667903934211
 30
0.0
 40
14.0
  1
1
 50
90.0
  0
LINE
  5
2A8F
  8
0
 62
     1
 10
16.3333333272233396
 20
33.3333334570600783
 30
0.0
 11
16.3333333272233396
 21
42.6666667903934069
 31
0.0
  0
TEXT
  5
2A90
  8
0
 62
     1
 10
32.6666666605566789
 20
33.3333334570600783
 30
0.0
 40
14.0
  1
8
 50
90.0
  0
TEXT
  5
2A91
  8
0
 62
     1
 10
26.3363333272233611
 20
47.333333457060057
 30
0.0
 40
20.0060000000000002
  1
''
 50
90.0
  0
ENDBLK
  5
2A93
  8
0
  0
BLOCK
  8
0
  2
*U520
 70
     1
 10
0.0
 20
0.0
 30
0.0
  3
*U520
  1

  0
TEXT
  5
2A95
  8
0
 62
     1
 10
5669.0513940480777819
 20
-286.0730588953110782
 30
0.0
 40
20.0
  1
21
 50
90.0
  0
TEXT
  5
2A96
  8
0
 62
     1
 10
5656.7180607147438423
 20
-250.4063922286443926
 30
0.0
 40
14.0
  1
1
 50
90.0
  0
LINE
  5
2A97
  8
0
 62
     1
 10
5659.0513940480768724
 20
-252.7397255619777923
 30
0.0
 11
5659.0513940480768724
 21
-243.4063922286443926
 31
0.0
  0
TEXT
  5
2A98
  8
0
 62
     1
 10
5675.3847273814099026
 20
-252.7397255619777923
 30
0.0
 40
14.0
  1
2
 50
90.0
  0
TEXT
  5
2A99
  8
0
 62
     1
 10
5669.0543940480783931
 20
-238.7397255619777923
 30
0.0
 40
20.0060000000000002
  1
''
 50
90.0
  0
ENDBLK
  5
2A9B
  8
0
  0
BLOCK
  8
0
  2
*U521
 70
     1
 10
0.0
 20
0.0
 30
0.0
  3
*U521
  1

  0
TEXT
  5
2A9D
  8
0
 62
     1
 10
0.000000000003638
 20
6.3333334570603874
 30
0.0
 40
20.0
  1
31
  0
TEXT
  5
2A9E
  8
0
 62
     1
 10
35.6666666666703094
 20
18.6666667903937196
 30
0.0
 40
14.0
  1
1
  0
LINE
  5
2A9F
  8
0
 62
     1
 10
33.3333333333369666
 20
16.333333457060391
 30
0.0
 11
42.666666666670281
 21
16.333333457060391
 31
0.0
  0
TEXT
  5
2AA0
  8
0
 62
     1
 10
33.3333333333369666
 20
0.0000001237270562
 30
0.0
 40
14.0
  1
8
  0
TEXT
  5
2AA1
  8
0
 62
     1
 10
47.3333333333369595
 20
6.3303334570603873
 30
0.0
 40
20.0060000000000002
  1
''
  0
ENDBLK
  5
2AA3
  8
0
  0
BLOCK
  8
0
  2
*U522
 70
     1
 10
0.0
 20
0.0
 30
0.0
  3
*U522
  1

  0
TEXT
  5
2AA5
  8
0
 62
     1
 10
6183.6222106911745868
 20
9.2002544111898441
 30
0.0
 40
20.0
  1
32
  0
TEXT
  5
2AA6
  8
0
 62
     1
 10
6223.6222106911745868
 20
21.5335877445231816
 30
0.0
 40
14.0
  1
5
  0
LINE
  5
2AA7
  8
0
 62
     1
 10
6223.6222106911745868
 20
19.2002544111898388
 30
0.0
 11
6232.9555440245048885
 21
19.2002544111898388
 31
0.0
  0
TEXT
  5
2AA8
  8
0
 62
     1
 10
6223.6222106911745868
 20
2.8669210778565142
 30
0.0
 40
14.0
  1
8
  0
TEXT
  5
2AA9
  8
0
 62
     1
 10
6237.6222106911736773
 20
9.1972544111898422
 30
0.0
 40
20.0060000000000002
  1
''
  0
ENDBLK
  5
2AAB
  8
0
  0
BLOCK
  8
0
  2
*U523
 70
     1
 10
0.0
 20
0.0
 30
0.0
  3
*U523
  1

  0
TEXT
  5
2AB9
  8
0
 10
643.3080660676405387
 20
74.0309804218122736
 30
0.0
 40
25.0
  1
TZ M826
  0
ENDBLK
  5
2ABB
  8
0
  0
BLOCK
  8
0
  2
*U524
 70
     1
 10
0.0
 20
0.0
 30
0.0
  3
*U524
  1

  0
TEXT
  5
2ABD
  8
0
 62
     1
 10
188.9927708643747906
 20
933.4691810745234761
 30
0.0
 40
20.0
  1
21
 50
90.0
  0
TEXT
  5
2ABE
  8
0
 62
     1
 10
176.6594375310415046
 20
969.1358477411903323
 30
0.0
 40
14.0
  1
1
 50
90.0
  0
LINE
  5
2ABF
  8
0
 62
     1
 10
178.9927708643747906
 20
966.8025144078567337
 30
0.0
 11
178.9927708643747906
 21
976.1358477411898775
 31
0.0
  0
TEXT
  5
2AC0
  8
0
 62
     1
 10
195.3261041977081049
 20
966.8025144078567337
 30
0.0
 40
14.0
  1
2
 50
90.0
  0
TEXT
  5
2AC1
  8
0
 62
     1
 10
188.9957708643748049
 20
980.8025144078568474
 30
0.0
 40
20.0060000000000002
  1
''
 50
90.0
  0
ENDBLK
  5
2AC3
  8
0
  0
BLOCK
  8
0
  2
*U525
 70
     1
 10
0.0
 20
0.0
 30
0.0
  3
*U525
  1

  0
TEXT
  5
2AC5
  8
0
 62
     1
 10
703.5635875074713113
 20
1228.7424943810240165
 30
0.0
 40
20.0
  1
32
  0
TEXT
  5
2AC6
  8
0
 62
     1
 10
743.5635875074713113
 20
1241.0758277143579562
 30
0.0
 40
14.0
  1
5
  0
LINE
  5
2AC7
  8
0
 62
     1
 10
743.5635875074713113
 20
1238.7424943810240165
 30
0.0
 11
752.8969208408047962
 21
1238.7424943810240165
 31
0.0
  0
TEXT
  5
2AC8
  8
0
 62
     1
 10
743.5635875074713113
 20
1222.4091610476909864
 30
0.0
 40
14.0
  1
8
  0
TEXT
  5
2AC9
  8
0
 62
     1
 10
757.5635875074713113
 20
1228.7394943810240875
 30
0.0
 40
20.0060000000000002
  1
''
  0
ENDBLK
  5
2ACB
  8
0
  0
BLOCK
  8
0
  2
*U526
 70
     1
 10
0.0
 20
0.0
 30
0.0
  3
*U526
  1

  0
TEXT
  5
2AD1
  8
0
 10
4201.5414014208572553
 20
-2647.5695569407580479
 30
0.0
 40
25.0
  1
TZ M927
  0
ENDBLK
  5
2AD3
  8
0
  0
BLOCK
  8
0
  2
*U527
 70
     1
 10
0.0
 20
0.0
 30
0.0
  3
*U527
  1

  0
TEXT
  5
2AD5
  8
0
 62
     1
 10
3747.2261062175921325
 20
-1788.1313562880470727
 30
0.0
 40
20.0
  1
21
 50
90.0
  0
TEXT
  5
2AD6
  8
0
 62
     1
 10
3734.8927728842591023
 20
-1754.7980229547129056
 30
0.0
 40
14.0
  1
3
 50
90.0
  0
LINE
  5
2AD7
  8
0
 62
     1
 10
3737.2261062175930419
 20
-1754.7980229547129056
 30
0.0
 11
3737.2261062175930419
 21
-1745.4646896213801028
 31
0.0
  0
TEXT
  5
2AD8
  8
0
 62
     1
 10
3753.5594395509260721
 20
-1754.7980229547129056
 30
0.0
 40
14.0
  1
8
 50
90.0
  0
TEXT
  5
2AD9
  8
0
 62
     1
 10
3747.2291062175931984
 20
-1740.7980229547129056
 30
0.0
 40
20.0060000000000002
  1
''
 50
90.0
  0
ENDBLK
  5
2ADB
  8
0
  0
BLOCK
  8
0
  2
*U528
 70
     1
 10
0.0
 20
0.0
 30
0.0
  3
*U528
  1

  0
TEXT
  5
2AE1
  8
0
 62
     1
 10
0.000000000003638
 20
6.3333334570603901
 30
0.0
 40
20.0
  1
32
  0
TEXT
  5
2AE2
  8
0
 62
     1
 10
40.000000000003638
 20
18.6666667903937196
 30
0.0
 40
14.0
  1
5
  0
LINE
  5
2AE3
  8
0
 62
     1
 10
40.000000000003638
 20
16.333333457060391
 30
0.0
 11
49.3333333333369595
 21
16.333333457060391
 31
0.0
  0
TEXT
  5
2AE4
  8
0
 62
     1
 10
40.000000000003638
 20
0.0000001237270597
 30
0.0
 40
14.0
  1
8
  0
TEXT
  5
2AE5
  8
0
 62
     1
 10
54.000000000003638
 20
6.3303334570603891
 30
0.0
 40
20.0060000000000002
  1
''
  0
ENDBLK
  5
2AE7
  8
0
  0
BLOCK
  8
0
  2
*U529
 70
     1
 10
0.0
 20
0.0
 30
0.0
  3
*U529
  1

  0
TEXT
  5
2AE9
  8
0
 62
     1
 10
4315.5029253088468977
 20
-1492.5984814588171048
 30
0.0
 40
20.0
  1
36
  0
TEXT
  5
2AEA
  8
0
 62
     1
 10
4357.8362586421790184
 20
-1480.2651481254820283
 30
0.0
 40
14.0
  1
1
  0
LINE
  5
2AEB
  8
0
 62
     1
 10
4355.5029253088459882
 20
-1482.5984814588171048
 30
0.0
 11
4364.8362586421799278
 21
-1482.5984814588171048
 31
0.0
  0
TEXT
  5
2AEC
  8
0
 62
     1
 10
4355.5029253088459882
 20
-1498.9318147921499076
 30
0.0
 40
14.0
  1
2
  0
TEXT
  5
2AED
  8
0
 62
     1
 10
4369.5029253088468977
 20
-1492.6014814588170339
 30
0.0
 40
20.0060000000000002
  1
''
  0
ENDBLK
  5
2AEF
  8
0
  0
BLOCK
  8
0
  2
*U530
 70
     1
 10
0.0
 20
0.0
 30
0.0
  3
*U530
  1

  0
TEXT
  5
2B01
  8
0
 10
643.3080660676369007
 20
74.0309804218122736
 30
0.0
 40
25.0
  1
TZ WS788
  0
ENDBLK
  5
2B03
  8
0
  0
BLOCK
  8
0
  2
*U531
 70
     1
 10
0.0
 20
0.0
 30
0.0
  3
*U531
  1

  0
TEXT
  5
2B05
  8
0
 62
     1
 10
694.8023156891592862
 20
1215.3604206038130542
 30
0.0
 40
20.0
  1
31
  0
TEXT
  5
2B06
  8
0
 62
     1
 10
730.468982355826256
 20
1227.6937539371460844
 30
0.0
 40
14.0
  1
1
  0
LINE
  5
2B07
  8
0
 62
     1
 10
728.1356490224926574
 20
1225.3604206038130542
 30
0.0
 11
737.468982355826256
 21
1225.3604206038130542
 31
0.0
  0
TEXT
  5
2B08
  8
0
 62
     1
 10
728.1356490224926574
 20
1209.027087270480024
 30
0.0
 40
14.0
  1
8
  0
TEXT
  5
2B09
  8
0
 62
     1
 10
742.1356490224925437
 20
1215.3574206038128978
 30
0.0
 40
20.0060000000000002
  1
''
  0
ENDBLK
  5
2B0B
  8
0
  0
BLOCK
  8
0
  2
*U532
 70
     1
 10
0.0
 20
0.0
 30
0.0
  3
*U532
  1

  0
TEXT
  5
2B0D
  8
0
 62
     1
 10
182.7939359392852054
 20
981.9076802312290511
 30
0.0
 40
20.0
  1
17
 50
90.0
  0
TEXT
  5
2B0E
  8
0
 62
     1
 10
170.4606026059518058
 20
1017.5743468978960209
 30
0.0
 40
14.0
  1
1
 50
90.0
  0
LINE
  5
2B0F
  8
0
 62
     1
 10
172.7939359392852054
 20
1015.2410135645619675
 30
0.0
 11
172.7939359392852054
 21
1024.5743468978960209
 31
0.0
  0
TEXT
  5
2B10
  8
0
 62
     1
 10
189.1272692726184914
 20
1015.2410135645619675
 30
0.0
 40
14.0
  1
8
 50
90.0
  0
TEXT
  5
2B11
  8
0
 62
     1
 10
182.7969359392851914
 20
1029.2410135645620812
 30
0.0
 40
20.0060000000000002
  1
''
 50
90.0
  0
ENDBLK
  5
2B13
  8
0
  0
BLOCK
  8
0
  2
*U533
 70
     1
 10
0.0
 20
0.0
 30
0.0
  3
*U533
  1

  0
TEXT
  5
2B19
  8
0
 10
6137.4163996593770207
 20
-3987.2581771607428891
 30
0.0
 40
25.0
  1
TZ F827
  0
ENDBLK
  5
2B1B
  8
0
  0
BLOCK
  8
0
  2
*U534
 70
     1
 10
0.0
 20
0.0
 30
0.0
  3
*U534
  1

  0
TEXT
  5
2B25
  8
0
 62
     1
 10
-0.000000000001819
 20
6.3333334570622064
 30
0.0
 40
20.0
  1
31
  0
TEXT
  5
2B26
  8
0
 62
     1
 10
35.6666666666648524
 20
18.6666667903955315
 30
0.0
 40
14.0
  1
1
  0
LINE
  5
2B27
  8
0
 62
     1
 10
33.3333333333315167
 20
16.3333334570621993
 30
0.0
 11
42.6666666666648311
 21
16.3333334570621993
 31
0.0
  0
TEXT
  5
2B28
  8
0
 62
     1
 10
33.3333333333315167
 20
0.0000001237288751
 30
0.0
 40
14.0
  1
8
  0
TEXT
  5
2B29
  8
0
 62
     1
 10
47.3333333333315096
 20
6.3303334570622063
 30
0.0
 40
20.0060000000000002
  1
''
  0
ENDBLK
  5
2B2B
  8
0
  0
BLOCK
  8
0
  2
*U535
 70
     1
 10
0.0
 20
0.0
 30
0.0
  3
*U535
  1

  0
TEXT
  5
2B2D
  8
0
 62
     1
 10
6198.6821143749939438
 20
-2832.9395369842409309
 30
0.0
 40
20.0
  1
32
  0
TEXT
  5
2B2E
  8
0
 62
     1
 10
6241.0154477083278834
 20
-2820.6062036509088102
 30
0.0
 40
14.0
  1
1
  0
LINE
  5
2B2F
  8
0
 62
     1
 10
6238.6821143749939438
 20
-2822.9395369842418404
 30
0.0
 11
6248.0154477083278834
 21
-2822.9395369842418404
 31
0.0
  0
TEXT
  5
2B30
  8
0
 62
     1
 10
6238.6821143749939438
 20
-2839.2728703175748706
 30
0.0
 40
14.0
  1
2
  0
TEXT
  5
2B31
  8
0
 62
     1
 10
6252.6821143749939438
 20
-2832.9425369842419968
 30
0.0
 40
20.0060000000000002
  1
''
  0
ENDBLK
  5
2B33
  8
0
  0
BLOCK
  8
0
  2
*U536
 70
     1
 10
0.0
 20
0.0
 30
0.0
  3
*U536
  1

  0
TEXT
  5
2B35
  8
0
 62
     1
 10
26.3333333272215313
 20
0.0000001237267481
 30
0.0
 40
20.0
  1
17
 50
90.0
  0
TEXT
  5
2B36
  8
0
 62
     1
 10
13.9999999938881903
 20
35.6666667903934211
 30
0.0
 40
14.0
  1
1
 50
90.0
  0
LINE
  5
2B37
  8
0
 62
     1
 10
16.3333333272215313
 20
33.3333334570600783
 30
0.0
 11
16.3333333272215313
 21
42.6666667903934069
 31
0.0
  0
TEXT
  5
2B38
  8
0
 62
     1
 10
32.6666666605548599
 20
33.3333334570600783
 30
0.0
 40
14.0
  1
8
 50
90.0
  0
TEXT
  5
2B39
  8
0
 62
     1
 10
26.3363333272215314
 20
47.333333457060057
 30
0.0
 40
20.0060000000000002
  1
''
 50
90.0
  0
ENDBLK
  5
2B3B
  8
0
  0
BLOCK
  8
0
  2
*U537
 70
     1
 10
0.0
 20
0.0
 30
0.0
  3
*U537
  1

  0
TEXT
  5
2B3D
  8
0
 62
     1
 10
5681.3694676890017945
 20
-3149.0324196934088832
 30
0.0
 40
20.0
  1
22
 50
90.0
  0
TEXT
  5
2B3E
  8
0
 62
     1
 10
5669.0361343556678548
 20
-3109.0324196934079737
 30
0.0
 40
14.0
  1
6
 50
90.0
  0
LINE
  5
2B3F
  8
0
 62
     1
 10
5671.3694676889999755
 20
-3109.0324196934079737
 30
0.0
 11
5671.3694676889999755
 21
-3099.6990863600749435
 31
0.0
  0
TEXT
  5
2B40
  8
0
 62
     1
 10
5687.7028010223339152
 20
-3109.0324196934079737
 30
0.0
 40
14.0
  1
8
 50
90.0
  0
TEXT
  5
2B41
  8
0
 62
     1
 10
5681.3724676889996772
 20
-3095.0324196934088832
 30
0.0
 40
20.0060000000000002
  1
''
 50
90.0
  0
ENDBLK
  5
2B43
  8
0
  0
BLOCK
  8
0
  2
*U538
 70
     1
 10
0.0
 20
0.0
 30
0.0
  3
*U538
  1

  0
TEXT
  5
2B6D
  8
0
 62
     1
 10
543.6459800132161035
 20
316.0928828328911777
 30
0.0
 40
20.0
  1
32
  0
TEXT
  5
2B6E
  8
0
 62
     1
 10
585.9793133465492474
 20
328.4262161662244921
 30
0.0
 40
14.0
  1
1
  0
LINE
  5
2B6F
  8
0
 62
     1
 10
583.6459800132161035
 20
326.0928828328911777
 30
0.0
 11
592.9793133465492474
 21
326.0928828328911777
 31
0.0
  0
TEXT
  5
2B70
  8
0
 62
     1
 10
583.6459800132161035
 20
309.759549499557977
 30
0.0
 40
14.0
  1
2
  0
TEXT
  5
2B71
  8
0
 62
     1
 10
597.6459800132161035
 20
316.0898828328911918
 30
0.0
 40
20.0060000000000002
  1
''
  0
ENDBLK
  5
2B73
  8
0
  0
BLOCK
  8
0
  2
*U539
 70
     1
 10
0.0
 20
0.0
 30
0.0
  3
*U539
  1

  0
TEXT
  5
2B75
  8
0
 62
     1
 10
26.3333333272215313
 20
0.0000001237249291
 30
0.0
 40
20.0
  1
22
 50
90.0
  0
TEXT
  5
2B76
  8
0
 62
     1
 10
13.9999999938881903
 20
40.0000001237249307
 30
0.0
 40
14.0
  1
6
 50
90.0
  0
LINE
  5
2B77
  8
0
 62
     1
 10
16.3333333272215313
 20
40.0000001237249307
 30
0.0
 11
16.3333333272215313
 21
49.3333334570582522
 31
0.0
  0
TEXT
  5
2B78
  8
0
 62
     1
 10
32.6666666605548599
 20
40.0000001237249307
 30
0.0
 40
14.0
  1
8
 50
90.0
  0
TEXT
  5
2B79
  8
0
 62
     1
 10
26.3363333272215314
 20
54.0000001237249307
 30
0.0
 40
20.0060000000000002
  1
''
 50
90.0
  0
ENDBLK
  5
2B7B
  8
0
  0
BLOCK
  8
0
  2
*U540
 70
     1
 10
0.0
 20
0.0
 30
0.0
  3
*U540
  1

  0
TEXT
  5
2B7D
  8
0
 62
     1
 10
26.3333333272215313
 20
0.0000001237249291
 30
0.0
 40
20.0
  1
22
 50
90.0
  0
TEXT
  5
2B7E
  8
0
 62
     1
 10
13.9999999938881903
 20
40.0000001237249307
 30
0.0
 40
14.0
  1
6
 50
90.0
  0
LINE
  5
2B7F
  8
0
 62
     1
 10
16.3333333272215313
 20
40.0000001237249307
 30
0.0
 11
16.3333333272215313
 21
49.3333334570582522
 31
0.0
  0
TEXT
  5
2B80
  8
0
 62
     1
 10
32.6666666605548599
 20
40.0000001237249307
 30
0.0
 40
14.0
  1
8
 50
90.0
  0
TEXT
  5
2B81
  8
0
 62
     1
 10
26.3363333272215314
 20
54.0000001237249307
 30
0.0
 40
20.0060000000000002
  1
''
 50
90.0
  0
ENDBLK
  5
2B83
  8
0
  0
BLOCK
  8
0
  2
*U541
 70
     1
 10
0.0
 20
0.0
 30
0.0
  3
*U541
  1

  0
TEXT
  5
2B85
  8
0
 62
     1
 10
2147.2821057289011151
 20
-370.5583693768704165
 30
0.0
 40
20.0
  1
12
 50
90.0
  0
TEXT
  5
2B86
  8
0
 62
     1
 10
2134.9487723955680849
 20
-334.8917027102036741
 30
0.0
 40
14.0
  1
1
 50
90.0
  0
LINE
  5
2B87
  8
0
 62
     1
 10
2137.2821057289011151
 20
-337.2250360435371022
 30
0.0
 11
2137.2821057289011151
 21
-327.8917027102036741
 31
0.0
  0
TEXT
  5
2B88
  8
0
 62
     1
 10
2153.6154390622350547
 20
-337.2250360435371022
 30
0.0
 40
14.0
  1
8
 50
90.0
  0
TEXT
  5
2B89
  8
0
 62
     1
 10
2147.2851057289008168
 20
-323.2250360435368748
 30
0.0
 40
20.0060000000000002
  1
''
 50
90.0
  0
ENDBLK
  5
2B8B
  8
0
  0
BLOCK
  8
0
  2
*U542
 70
     1
 10
0.0
 20
0.0
 30
0.0
  3
*U542
  1

  0
TEXT
  5
2B8D
  8
0
 62
     1
 10
-0.000000000001819
 20
6.3333334570622064
 30
0.0
 40
20.0
  1
32
  0
TEXT
  5
2B8E
  8
0
 62
     1
 10
42.3333333333315167
 20
18.6666667903955315
 30
0.0
 40
14.0
  1
1
  0
LINE
  5
2B8F
  8
0
 62
     1
 10
39.9999999999981668
 20
16.3333334570621993
 30
0.0
 11
49.3333333333315096
 21
16.3333334570621993
 31
0.0
  0
TEXT
  5
2B90
  8
0
 62
     1
 10
39.9999999999981668
 20
0.0000001237288751
 30
0.0
 40
14.0
  1
2
  0
TEXT
  5
2B91
  8
0
 62
     1
 10
53.999999999998181
 20
6.3303334570622063
 30
0.0
 40
20.0060000000000002
  1
''
  0
ENDBLK
  5
2B93
  8
0
  0
BLOCK
  8
0
  2
*U543
 70
     1
 10
0.0
 20
0.0
 30
0.0
  3
*U543
  1

  0
TEXT
  5
2B95
  8
0
 62
     1
 10
2473.5153151964991594
 20
-207.5622461360283921
 30
0.0
 40
20.0
  1
18
  0
TEXT
  5
2B96
  8
0
 62
     1
 10
2509.1819818631661292
 20
-195.2289128026949072
 30
0.0
 40
14.0
  1
1
  0
LINE
  5
2B97
  8
0
 62
     1
 10
2506.8486485298321895
 20
-197.5622461360283921
 30
0.0
 11
2516.1819818631661292
 21
-197.5622461360283921
 31
0.0
  0
TEXT
  5
2B98
  8
0
 62
     1
 10
2506.8486485298321895
 20
-213.8955794693617065
 30
0.0
 40
14.0
  1
4
  0
TEXT
  5
2B99
  8
0
 62
     1
 10
2520.8486485298321895
 20
-207.5652461360284065
 30
0.0
 40
20.0060000000000002
  1
''
  0
ENDBLK
  5
2B9B
  8
0
  0
BLOCK
  8
0
  2
*U544
 70
     1
 10
0.0
 20
0.0
 30
0.0
  3
*U544
  1

  0
TEXT
  5
2B9D
  8
0
 10
2328.8997223993728767
 20
-1162.7852333433449985
 30
0.0
 40
25.0
  1
TZ VS458
  0
ENDBLK
  5
2B9F
  8
0
  0
BLOCK
  8
0
  2
*U545
 70
     1
 10
0.0
 20
0.0
 30
0.0
  3
*U545
  1

  0
TEXT
  5
2BC1
  8
0
 10
643.3080660676388334
 20
74.0309804218122736
 30
0.0
 40
25.0
  1
TZ M927
  0
ENDBLK
  5
2BC3
  8
0
  0
BLOCK
  8
0
  2
*U546
 70
     1
 10
0.0
 20
0.0
 30
0.0
  3
*U546
  1

  0
TEXT
  5
2BC5
  8
0
 62
     1
 10
188.992770864373
 20
933.4691810745234761
 30
0.0
 40
20.0
  1
21
 50
90.0
  0
TEXT
  5
2BC6
  8
0
 62
     1
 10
176.6594375310394867
 20
966.8025144078567337
 30
0.0
 40
14.0
  1
3
 50
90.0
  0
LINE
  5
2BC7
  8
0
 62
     1
 10
178.992770864373
 20
966.8025144078567337
 30
0.0
 11
178.992770864373
 21
976.1358477411898775
 31
0.0
  0
TEXT
  5
2BC8
  8
0
 62
     1
 10
195.326104197706286
 20
966.8025144078567337
 30
0.0
 40
14.0
  1
8
 50
90.0
  0
TEXT
  5
2BC9
  8
0
 62
     1
 10
188.9957708643729859
 20
980.8025144078568474
 30
0.0
 40
20.0060000000000002
  1
''
 50
90.0
  0
ENDBLK
  5
2BCB
  8
0
  0
BLOCK
  8
0
  2
*U547
 70
     1
 10
0.0
 20
0.0
 30
0.0
  3
*U547
  1

  0
TEXT
  5
2BCD
  8
0
 62
     1
 10
757.2695899556274526
 20
1229.0020559037529893
 30
0.0
 40
20.0
  1
36
  0
TEXT
  5
2BCE
  8
0
 62
     1
 10
799.6029232889607101
 20
1241.3353892370869289
 30
0.0
 40
14.0
  1
1
  0
LINE
  5
2BCF
  8
0
 62
     1
 10
797.2695899556274526
 20
1239.0020559037538987
 30
0.0
 11
806.6029232889605964
 21
1239.0020559037538987
 31
0.0
  0
TEXT
  5
2BD0
  8
0
 62
     1
 10
797.2695899556274526
 20
1222.6687225704199591
 30
0.0
 40
14.0
  1
2
  0
TEXT
  5
2BD1
  8
0
 62
     1
 10
811.2695899556274526
 20
1228.9990559037530602
 30
0.0
 40
20.0060000000000002
  1
''
  0
ENDBLK
  5
2BD3
  8
0
  0
BLOCK
  8
0
  2
*U548
 70
     1
 10
0.0
 20
0.0
 30
0.0
  3
*U548
  1

  0
TEXT
  5
2BF9
  8
0
 10
643.3080660676388334
 20
74.0309804218122736
 30
0.0
 40
25.0
  1
TZ M927
  0
ENDBLK
  5
2BFB
  8
0
  0
BLOCK
  8
0
  2
*U549
 70
     1
 10
0.0
 20
0.0
 30
0.0
  3
*U549
  1

  0
TEXT
  5
2C15
  8
0
 10
4192.2409158259451942
 20
-4052.0111051220810623
 30
0.0
 40
20.0
  1
TZ PRS787_M
  0
TEXT
  5
2C16
  8
0
 10
4192.2409158259451942
 20
-4085.3444384554140925
 30
0.0
 40
20.0
  1
TZ PRS787_P
  0
ENDBLK
  5
2C18
  8
0
  0
BLOCK
  8
0
  2
*U550
 70
     1
 10
0.0
 20
0.0
 30
0.0
  3
*U550
  1

  0
TEXT
  5
2C1A
  8
0
 62
     1
 10
543.6459800132179225
 20
316.0928828328929967
 30
0.0
 40
20.0
  1
32
  0
TEXT
  5
2C1B
  8
0
 62
     1
 10
585.9793133465512938
 20
328.4262161662264248
 30
0.0
 40
14.0
  1
1
  0
LINE
  5
2C1C
  8
0
 62
     1
 10
583.6459800132176952
 20
326.0928828328932241
 30
0.0
 11
592.9793133465512938
 21
326.0928828328932241
 31
0.0
  0
TEXT
  5
2C1D
  8
0
 62
     1
 10
583.6459800132176952
 20
309.7595494995596823
 30
0.0
 40
14.0
  1
2
  0
TEXT
  5
2C1E
  8
0
 62
     1
 10
597.6459800132178088
 20
316.0898828328930108
 30
0.0
 40
20.0060000000000002
  1
''
  0
ENDBLK
  5
2C20
  8
0
  0
BLOCK
  8
0
  2
*U551
 70
     1
 10
0.0
 20
0.0
 30
0.0
  3
*U551
  1

  0
TEXT
  5
2C22
  8
0
 62
     1
 10
26.3333333272233503
 20
0.0000001237267481
 30
0.0
 40
20.0
  1
22
 50
90.0
  0
TEXT
  5
2C23
  8
0
 62
     1
 10
13.9999999938900093
 20
40.0000001237267497
 30
0.0
 40
14.0
  1
6
 50
90.0
  0
LINE
  5
2C24
  8
0
 62
     1
 10
16.3333333272233396
 20
40.0000001237267497
 30
0.0
 11
16.3333333272233396
 21
49.3333334570600783
 31
0.0
  0
TEXT
  5
2C25
  8
0
 62
     1
 10
32.6666666605566789
 20
40.0000001237267497
 30
0.0
 40
14.0
  1
8
 50
90.0
  0
TEXT
  5
2C26
  8
0
 62
     1
 10
26.3363333272233611
 20
54.0000001237267497
 30
0.0
 40
20.0060000000000002
  1
''
 50
90.0
  0
ENDBLK
  5
2C28
  8
0
  0
BLOCK
  8
0
  2
*U552
 70
     1
 10
0.0
 20
0.0
 30
0.0
  3
*U552
  1

  0
TEXT
  5
2C2A
  8
0
 62
     1
 10
3810.4558052880738614
 20
-3171.1998903287271787
 30
0.0
 40
20.0
  1
16
 50
90.0
  0
TEXT
  5
2C2B
  8
0
 62
     1
 10
3798.1224719547408313
 20
-3135.5332236620602089
 30
0.0
 40
14.0
  1
1
 50
90.0
  0
LINE
  5
2C2C
  8
0
 62
     1
 10
3800.4558052880752257
 20
-3137.8665569953941485
 30
0.0
 11
3800.4558052880752257
 21
-3128.5332236620602089
 31
0.0
  0
TEXT
  5
2C2D
  8
0
 62
     1
 10
3816.7891386214078011
 20
-3137.8665569953941485
 30
0.0
 40
14.0
  1
8
 50
90.0
  0
TEXT
  5
2C2E
  8
0
 62
     1
 10
3810.4588052880749274
 20
-3123.8665569953927843
 30
0.0
 40
20.0060000000000002
  1
''
 50
90.0
  0
ENDBLK
  5
2C30
  8
0
  0
BLOCK
  8
0
  2
*U553
 70
     1
 10
0.0
 20
0.0
 30
0.0
  3
*U553
  1

  0
TEXT
  5
2C32
  8
0
 62
     1
 10
0.000000000001819
 20
6.3333334570640254
 30
0.0
 40
20.0
  1
32
  0
TEXT
  5
2C33
  8
0
 62
     1
 10
42.3333333333351405
 20
18.6666667903973611
 30
0.0
 40
14.0
  1
1
  0
LINE
  5
2C34
  8
0
 62
     1
 10
40.0000000000018119
 20
16.3333334570640183
 30
0.0
 11
49.3333333333351405
 21
16.3333334570640183
 31
0.0
  0
TEXT
  5
2C35
  8
0
 62
     1
 10
40.0000000000018119
 20
0.0000001237306941
 30
0.0
 40
14.0
  1
2
  0
TEXT
  5
2C36
  8
0
 62
     1
 10
54.000000000001819
 20
6.3303334570640244
 30
0.0
 40
20.0060000000000002
  1
''
  0
ENDBLK
  5
2C38
  8
0
  0
BLOCK
  8
0
  2
*U554
 70
     1
 10
0.0
 20
0.0
 30
0.0
  3
*U554
  1

  0
TEXT
  5
2C3A
  8
0
 62
     1
 10
4389.8560653299045953
 20
-2906.2196996607081019
 30
0.0
 40
20.0
  1
31
  0
TEXT
  5
2C3B
  8
0
 62
     1
 10
4425.5227319965688366
 20
-2893.8863663273750717
 30
0.0
 40
14.0
  1
1
  0
LINE
  5
2C3C
  8
0
 62
     1
 10
4423.1893986632376254
 20
-2896.2196996607090114
 30
0.0
 11
4432.5227319965688366
 21
-2896.2196996607090114
 31
0.0
  0
TEXT
  5
2C3D
  8
0
 62
     1
 10
4423.1893986632376254
 20
-2912.5530329940420415
 30
0.0
 40
14.0
  1
8
  0
TEXT
  5
2C3E
  8
0
 62
     1
 10
4437.1893986632376254
 20
-2906.2226996607091678
 30
0.0
 40
20.0060000000000002
  1
''
  0
ENDBLK
  5
2C40
  8
0
  0
BLOCK
  8
0
  2
*U555
 70
     1
 10
0.0
 20
0.0
 30
0.0
  3
*U555
  1

  0
TEXT
  5
2C4E
  8
0
 62
     1
 10
469.6184919866948917
 20
859.8873544503103403
 30
0.0
 40
20.0
  1
12
 50
90.0
  0
TEXT
  5
2C4F
  8
0
 62
     1
 10
457.2851586533615205
 20
895.5540211169769691
 30
0.0
 40
14.0
  1
1
 50
90.0
  0
LINE
  5
2C50
  8
0
 62
     1
 10
459.6184919866947212
 20
893.2206877836434842
 30
0.0
 11
459.6184919866947212
 21
902.5540211169767417
 31
0.0
  0
TEXT
  5
2C51
  8
0
 62
     1
 10
475.9518253200280924
 20
893.2206877836434842
 30
0.0
 40
14.0
  1
8
 50
90.0
  0
TEXT
  5
2C52
  8
0
 62
     1
 10
469.6214919866948776
 20
907.2206877836433705
 30
0.0
 40
20.0060000000000002
  1
''
 50
90.0
  0
ENDBLK
  5
2C54
  8
0
  0
BLOCK
  8
0
  2
*U556
 70
     1
 10
0.0
 20
0.0
 30
0.0
  3
*U556
  1

  0
TEXT
  5
2C56
  8
0
 62
     1
 10
795.851701454292197
 20
1022.8834776911520521
 30
0.0
 40
20.0
  1
18
  0
TEXT
  5
2C57
  8
0
 62
     1
 10
831.5183681209587121
 20
1035.2168110244849686
 30
0.0
 40
14.0
  1
1
  0
LINE
  5
2C58
  8
0
 62
     1
 10
829.1850347876254546
 20
1032.8834776911519384
 30
0.0
 11
838.5183681209587121
 21
1032.8834776911519384
 31
0.0
  0
TEXT
  5
2C59
  8
0
 62
     1
 10
829.1850347876254546
 20
1016.5501443578190219
 30
0.0
 40
14.0
  1
4
  0
TEXT
  5
2C5A
  8
0
 62
     1
 10
843.1850347876254546
 20
1022.8804776911520094
 30
0.0
 40
20.0060000000000002
  1
''
  0
ENDBLK
  5
2C5C
  8
0
  0
BLOCK
  8
0
  2
*U557
 70
     1
 10
0.0
 20
0.0
 30
0.0
  3
*U557
  1

  0
TEXT
  5
2C5E
  8
0
 10
651.2361086571671649
 20
67.6604904838350194
 30
0.0
 40
25.0
  1
TZ VS458
  0
ENDBLK
  5
2C60
  8
0
  0
BLOCK
  8
0
  2
*U558
 70
     1
 10
0.0
 20
0.0
 30
0.0
  3
*U558
  1

  0
TEXT
  5
2C66
  8
0
 62
     1
 10
2097.240349799275009
 20
-1879.9957730174799053
 30
0.0
 40
20.0
  1
12
 50
90.0
  0
TEXT
  5
2C67
  8
0
 62
     1
 10
2084.9070164659419788
 20
-1844.3291063508140724
 30
0.0
 40
14.0
  1
1
 50
90.0
  0
LINE
  5
2C68
  8
0
 62
     1
 10
2087.2403497992759185
 20
-1846.6624396841471025
 30
0.0
 11
2087.2403497992759185
 21
-1837.3291063508140724
 31
0.0
  0
TEXT
  5
2C69
  8
0
 62
     1
 10
2103.5736831326089487
 20
-1846.6624396841471025
 30
0.0
 40
14.0
  1
8
 50
90.0
  0
TEXT
  5
2C6A
  8
0
 62
     1
 10
2097.2433497992760749
 20
-1832.6624396841471025
 30
0.0
 40
20.0060000000000002
  1
''
 50
90.0
  0
ENDBLK
  5
2C6C
  8
0
  0
BLOCK
  8
0
  2
*U559
 70
     1
 10
0.0
 20
0.0
 30
0.0
  3
*U559
  1

  0
TEXT
  5
2C6E
  8
0
 62
     1
 10
2423.4735592668730533
 20
-1716.9996497766380799
 30
0.0
 40
20.0
  1
18
  0
TEXT
  5
2C6F
  8
0
 62
     1
 10
2459.1402259335400231
 20
-1704.6663164433050497
 30
0.0
 40
14.0
  1
1
  0
LINE
  5
2C70
  8
0
 62
     1
 10
2456.8068926002069929
 20
-1706.9996497766380799
 30
0.0
 11
2466.1402259335400231
 21
-1706.9996497766380799
 31
0.0
  0
TEXT
  5
2C71
  8
0
 62
     1
 10
2456.8068926002069929
 20
-1723.3329831099720195
 30
0.0
 40
14.0
  1
4
  0
TEXT
  5
2C72
  8
0
 62
     1
 10
2470.8068926002069929
 20
-1717.0026497766380089
 30
0.0
 40
20.0060000000000002
  1
''
  0
ENDBLK
  5
2C74
  8
0
  0
BLOCK
  8
0
  2
*U560
 70
     1
 10
0.0
 20
0.0
 30
0.0
  3
*U560
  1

  0
TEXT
  5
2C7E
  8
0
 10
-0.000000000001819
 20
4.1666688490040542
 30
0.0
 40
25.0
  1
TZ VE458 - TZ VE458_M
  0
ENDBLK
  5
2C80
  8
0
  0
BLOCK
  8
0
  2
*U561
 70
     1
 10
0.0
 20
0.0
 30
0.0
  3
*U561
  1

  0
TEXT
  5
2C82
  8
0
 10
2244.2372042529150349
 20
-2676.0779457453318173
 30
0.0
 40
25.0
  1
TZ VE458 - TZ VE458_M
  0
ENDBLK
  5
2C84
  8
0
  0
BLOCK
  8
0
  2
*D563
 70
     1
 10
0.0
 20
0.0
 30
0.0
  3
*D563
  1

  0
LINE
  5
3187
  8
0
 62
     0
 10
4113.1858150642547116
 20
-3372.0106875143487741
 30
0.0
 11
4046.4291483975889605
 21
-3372.0106875143487741
 31
0.0
  0
LINE
  5
3188
  8
0
 62
     0
 10
4046.4291483975889605
 20
-3372.0106875143487741
 30
0.0
 11
3958.9440182572129743
 21
-3406.6053397893228976
 31
0.0
  0
TEXT
  8
0
  40
20
  5
31ED
  62
0
  72
0
  71
0
 10
4039.85
 20
-3397.32
 30
0.00000
  1
R11.5
  0
SOLID
  5
318A
  8
0
 62
     0
 10
3958.0246984924269782
 20
-3404.2805062103170712
 30
0.0
 11
3959.8633380219998799
 21
-3408.9301733683291786
 31
0.0
 12
3944.9950167831771068
 22
-3412.1212583780370551
 32
0.0
 13
3944.9950167831771068
 23
-3412.1212583780370551
 33
0.0
  0
POINT
  5
318B
  8
DEFPOINTS
 62
     0
 10
3944.9950167831771068
 20
-3412.1212583780370551
 30
0.0
  0
POINT
  5
318C
  8
DEFPOINTS
 62
     0
 10
3954.2943510991940457
 20
-3408.4439793188971635
 30
0.0
  0
ENDBLK
  5
3186
  8
0
  0
BLOCK
  8
0
  2
*D564
 70
     1
 10
0.0
 20
0.0
 30
0.0
  3
*D564
  1

  0
LINE
  5
3190
  8
0
 62
     0
 10
3959.2943510991999574
 20
-2935.3438359434480844
 30
0.0
 11
4719.2943510991999574
 21
-2935.3438359434480844
 31
0.0
  0
SOLID
  5
3191
  8
0
 62
     0
 10
3959.2943510991999574
 20
-2932.8438359434480844
 30
0.0
 11
3959.2943510991999574
 21
-2937.8438359434489939
 31
0.0
 12
3944.2943510991999574
 22
-2935.3438359434480844
 32
0.0
 13
3944.2943510991999574
 23
-2935.3438359434480844
 33
0.0
  0
SOLID
  5
3192
  8
0
 62
     0
 10
4719.2943510991999574
 20
-2932.8438359434480844
 30
0.0
 11
4719.2943510991999574
 21
-2937.8438359434489939
 31
0.0
 12
4734.2943510991999574
 22
-2935.3438359434480844
 32
0.0
 13
4734.2943510991999574
 23
-2935.3438359434480844
 33
0.0
  0
TEXT
  8
0
  40
20
  5
31EE
  62
0
  72
0
  71
0
 10
4299.29
 20
-2960.65
 30
0.00000
  1
790.0000mm
  0
POINT
  5
3194
  8
DEFPOINTS
 62
     0
 10
3944.2943510991999574
 20
-3237.693979318898073
 30
0.0
  0
POINT
  5
3195
  8
DEFPOINTS
 62
     0
 10
4734.2943510991999574
 20
-3240.5527361323561308
 30
0.0
  0
POINT
  5
3196
  8
DEFPOINTS
 62
     0
 10
4734.2943510991999574
 20
-2935.3438359434480844
 30
0.0
  0
ENDBLK
  5
318F
  8
0
  0
BLOCK
  8
0
  2
*D565
 70
     1
 10
0.0
 20
0.0
 30
0.0
  3
*D565
  1

  0
LINE
  5
319A
  8
0
 62
     0
 10
3837.275038067020887
 20
-3025.4439793188989825
 30
0.0
 11
3837.275038067020887
 21
-3403.443979318899892
 31
0.0
  0
SOLID
  5
319B
  8
0
 62
     0
 10
3834.7750380670217965
 20
-3025.4439793188989825
 30
0.0
 11
3839.7750380670217965
 21
-3025.4439793188989825
 31
0.0
 12
3837.275038067020887
 22
-3010.4439793188989825
 32
0.0
 13
3837.275038067020887
 23
-3010.4439793188989825
 33
0.0
  0
SOLID
  5
319C
  8
0
 62
     0
 10
3834.7750380670217965
 20
-3403.443979318899892
 30
0.0
 11
3839.775038067020887
 21
-3403.443979318899892
 31
0.0
 12
3837.275038067020887
 22
-3418.4439793189008014
 32
0.0
 13
3837.275038067020887
 23
-3418.4439793189008014
 33
0.0
  0
TEXT
  8
0
  40
20
  5
31EF
  62
0
  72
0
  71
0
 10
3787.19
 20
-3249.84
 30
0.00000
  1
408.0000mm
  0
POINT
  5
319E
  8
DEFPOINTS
 62
     0
 10
4337.9943510991997755
 20
-3010.4439793188989825
 30
0.0
  0
POINT
  5
319F
  8
DEFPOINTS
 62
     0
 10
4337.9943510991997755
 20
-3418.4439793189008014
 30
0.0
  0
POINT
  5
31A0
  8
DEFPOINTS
 62
     0
 10
3837.275038067020887
 20
-3418.4439793189008014
 30
0.0
  0
ENDBLK
  5
3199
  8
0
  0
BLOCK
  8
0
  2
*U566
 70
     1
 10
0.0
 20
0.0
 30
0.0
  3
*U566
  1

  0
TEXT
  5
31EA
  8
0
 10
3951.6857537350838356
 20
-3912.141268861341814
 30
0.0
 40
20.0
  1
LYON_M / LYON_P
  0
ENDBLK
  5
31EC
  8
0
  0
ENDSEC
  0
SECTION
  2
ENTITIES
  0
LINE
  5
28BB
  8
0
 62
     1
 10
3954.2943510992008669
 20
-3010.4439793188989825
 30
0.0
 11
4724.2943510992017764
 21
-3010.4439793188989825
 31
0.0
  0
ARC
  5
28BC
  8
0
 62
     1
 10
4724.2943510992017764
 20
-3020.443979318898073
 30
0.0
 40
10.0
 50
0.0
 51
90.0
  0
LINE
  5
28BD
  8
0
 62
     1
 10
4734.2943510992026859
 20
-3020.443979318898073
 30
0.0
 11
4734.2943510991999574
 21
-3408.4439793188989825
 31
0.0
  0
ARC
  5
28BE
  8
0
 62
     1
 10
4724.2943510991990479
 20
-3408.4439793188989825
 30
0.0
 40
10.0
 50
270.0
 51
0.0
  0
LINE
  5
28BF
  8
0
 62
     1
 10
4724.2943510991990479
 20
-3418.4439793189008014
 30
0.0
 11
3954.2943510991999574
 21
-3418.4439793189008014
 31
0.0
  0
ARC
  5
28C0
  8
0
 62
     1
 10
3954.2943510991999574
 20
-3408.4439793188989825
 30
0.0
 40
10.0
 50
180.0
 51
270.0
  0
LINE
  5
28C1
  8
0
 62
     1
 10
3944.2943510991999574
 20
-3408.4439793188989825
 30
0.0
 11
3944.2943510992008669
 21
-3020.443979318898073
 31
0.0
  0
ARC
  5
28C2
  8
0
 62
     1
 10
3954.2943510992008669
 20
-3020.443979318898073
 30
0.0
 40
10.0
 50
90.0
 51
180.0
  0
LINE
  5
28C3
  8
0
 62
     1
 10
4297.994351099200685
 20
-3010.4439793188989825
 30
0.0
 11
4377.994351099198866
 21
-3010.4439793188989825
 31
0.0
  0
LINE
  5
28C4
  8
0
 62
     1
 10
3944.2943510992008669
 20
-3191.193979318898073
 30
0.0
 11
3944.2943510991999574
 21
-3237.693979318898073
 31
0.0
  0
LINE
  5
28C5
  8
0
 62
     1
 10
3944.2943510991999574
 20
-3382.1839287645821059
 30
0.0
 11
3944.2943510991999574
 21
-3408.4439793188989825
 31
0.0
  0
LINE
  5
28C6
  8
0
 62
     1
 10
4734.2943510991999574
 20
-3382.1839287645821059
 30
0.0
 11
4734.2943510991999574
 21
-3408.4439793188989825
 31
0.0
  0
LINE
  5
28C7
  8
0
 62
     1
 10
3968.9943510992011397
 20
-3010.4439793188989825
 30
0.0
 11
4709.5943510992019583
 21
-3010.4439793188989825
 31
0.0
  0
DIMENSION
  5
28C8
  8
0
 62
     1
  2
*D563
 10
3954.2943510991940457
 20
-3408.4439793188971635
 30
0.0
 11
4046.4291483975889605
 21
-3372.0106875143487741
 31
0.0
 70
   132
  1
R11.5
 15
3944.9950167831771068
 25
-3412.1212583780370551
 35
0.0
 40
0.0
1001
ACAD
1000
DSTYLE
1002
{
1070
   287
1070
     4
1070
   287
1070
     4
1070
   287
1070
     4
1070
   287
1070
     4
1070
   279
1070
     1
1070
   288
1070
     1
1002
}
  0
DIMENSION
  5
28C9
  8
0
 62
     1
  2
*D564
 10
4734.2943510991999574
 20
-2935.3438359434480844
 30
0.0
 11
4339.2943510991999574
 21
-2925.2538359434479389
 31
0.0
 70
     0
 13
3944.2943510991999574
 23
-3237.693979318898073
 33
0.0
 14
4734.2943510991999574
 24
-3240.5527361323561308
 34
0.0
1001
ACAD
1000
DSTYLE
1002
{
1070
   287
1070
     3
1070
   287
1070
     3
1070
     3
1000
mm
1070
   274
1070
     2
1070
   279
1070
     0
1070
   284
1070
     0
1070
   285
1070
     0
1070
   286
1070
     0
1002
}
  0
DIMENSION
  5
28CA
  8
0
 62
     1
  2
*D565
 10
3837.275038067020887
 20
-3418.4439793189008014
 30
0.0
 11
3827.1850380670211962
 21
-3214.4439793188989825
 31
0.0
 70
     0
 13
4337.9943510991997755
 23
-3010.4439793188989825
 33
0.0
 14
4337.9943510991997755
 24
-3418.4439793189008014
 34
0.0
 50
90.0
1001
ACAD
1000
DSTYLE
1002
{
1070
   287
1070
     3
1070
   287
1070
     3
1070
     3
1000
mm
1070
   274
1070
     2
1070
   279
1070
     0
1070
   284
1070
     0
1070
   285
1070
     0
1070
   286
1070
     0
1002
}
  0
LINE
  5
28CB
  8
0
 10
3578.9328470794348505
 20
-2841.0420817716899364
 30
0.0
 11
5278.9328470794353052
 21
-2841.0420817716899364
 31
0.0
  0
LINE
  5
28CC
  8
0
 10
3578.9328470794348505
 20
-2811.0420817716899364
 30
0.0
 11
5278.9328470794353052
 21
-2811.0420817716899364
 31
0.0
  0
LINE
  5
28CD
  8
0
 10
5278.9328470794353052
 20
-2841.0420817716899364
 30
0.0
 11
5278.9328470794353052
 21
-4101.0420817716876627
 31
0.0
  0
LINE
  5
28CE
  8
0
 10
5308.9328470794316672
 20
-2841.0420817716899364
 30
0.0
 11
5308.9328470794316672
 21
-4101.0420817716876627
 31
0.0
  0
LINE
  5
28CF
  8
0
 10
5278.9328470794353052
 20
-4101.0420817716876627
 30
0.0
 11
3578.9328470794348505
 21
-4101.0420817716876627
 31
0.0
  0
LINE
  5
28D0
  8
0
 10
5278.9328470794353052
 20
-4131.0420817716876627
 30
0.0
 11
3578.9328470794348505
 21
-4131.0420817716876627
 31
0.0
  0
LINE
  5
28D1
  8
0
 10
3578.9328470794348505
 20
-4101.0420817716876627
 30
0.0
 11
3578.9328470794348505
 21
-2841.0420817716899364
 31
0.0
  0
LINE
  5
28D2
  8
0
 10
3548.9328470794371242
 20
-4101.0420817716876627
 30
0.0
 11
3548.9328470794371242
 21
-2841.0420817716899364
 31
0.0
  0
LINE
  5
28D3
  8
0
 10
3548.9328470794371242
 20
-2841.0420817716899364
 30
0.0
 11
3548.9328470794371242
 21
-2811.0420817716899364
 31
0.0
  0
LINE
  5
28D4
  8
0
 10
3578.9328470794348505
 20
-2811.0420817716899364
 30
0.0
 11
3548.9328470794371242
 21
-2811.0420817716899364
 31
0.0
  0
LINE
  5
28D5
  8
0
 10
5308.9328470794316672
 20
-2841.0420817716899364
 30
0.0
 11
5308.9328470794371242
 21
-2811.0420817716899364
 31
0.0
  0
LINE
  5
28D6
  8
0
 10
5278.9328470794353052
 20
-2811.0420817716899364
 30
0.0
 11
5308.9328470794371242
 21
-2811.0420817716899364
 31
0.0
  0
LINE
  5
28D7
  8
0
 10
5278.9328470794353052
 20
-4131.0420817716876627
 30
0.0
 11
5308.9328470794371242
 21
-4131.0420817716876627
 31
0.0
  0
LINE
  5
28D8
  8
0
 10
5308.9328470794316672
 20
-4101.0420817716876627
 30
0.0
 11
5308.9328470794371242
 21
-4131.0420817716876627
 31
0.0
  0
LINE
  5
28D9
  8
0
 10
3578.9328470794348505
 20
-4131.0420817716876627
 30
0.0
 11
3548.9328470794371242
 21
-4131.0420817716876627
 31
0.0
  0
LINE
  5
28DA
  8
0
 10
3548.9328470794371242
 20
-4101.0420817716876627
 30
0.0
 11
3548.9328470794371242
 21
-4131.0420817716876627
 31
0.0
  0
LINE
  5
28DB
  8
0
 10
3578.9328470794348505
 20
-3861.5427509551082039
 30
0.0
 11
3881.4832766785129934
 21
-3861.5427509551082039
 31
0.0
  0
LINE
  5
28DC
  8
0
 10
3881.4832766785129934
 20
-3861.5427509551082039
 30
0.0
 11
3881.4832766785129934
 21
-4101.0420817716876627
 31
0.0
  0
LINE
  5
28DD
  8
0
 10
3881.4832766785129934
 20
-4016.0372549090320717
 30
0.0
 11
4623.1872655166325785
 21
-4016.0372549090320717
 31
0.0
  0
LINE
  5
28DE
  8
0
 10
4623.1872655166325785
 20
-4016.0372549090320717
 30
0.0
 11
5278.9328470794353052
 21
-4016.0372549090320717
 31
0.0
  0
LINE
  5
28DF
  8
0
 10
4151.8563395641567695
 20
-4016.0372549090320717
 30
0.0
 11
4151.8563395641567695
 21
-4101.0420817716876627
 31
0.0
  0
LINE
  5
28E0
  8
0
 10
4765.5198735293151913
 20
-4016.0372549090320717
 30
0.0
 11
4765.5198735293151913
 21
-4101.0420817716876627
 31
0.0
  0
LINE
  5
28E1
  8
0
 10
5036.1851505275026284
 20
-4016.0372549090320717
 30
0.0
 11
5036.1851505275026284
 21
-4101.0420817716876627
 31
0.0
  0
LINE
  5
28E2
  8
0
 10
3881.4832766785129934
 20
-3861.5427509551082039
 30
0.0
 11
5278.9328470794353052
 21
-3861.5427509551082039
 31
0.0
  0
LINE
  5
28E3
  8
0
 10
4663.16155324428928
 20
-3861.5427509551082039
 30
0.0
 11
4663.16155324428928
 21
-4016.0372549090320717
 31
0.0
  0
INSERT
  5
28E4
  8
0
  2
*U485
 10
-1931.1257734253979379
 20
-2911.4998455740587815
 30
0.0
  0
INSERT
  5
28E6
  8
0
  2
*U487
 10
-1931.1257734253979379
 20
-2911.4998455740587815
 30
0.0
  0
INSERT
  5
28E7
  8
0
  2
*U488
 10
-1931.1257734253979379
 20
-2911.4998455740587815
 30
0.0
  0
INSERT
  5
28E8
  8
0
  2
*U489
 10
-1931.1257734253979379
 20
-2911.4998455740587815
 30
0.0
  0
INSERT
  5
28E9
  8
0
  2
*U490
 10
-1931.1257734253979379
 20
-2911.4998455740587815
 30
0.0
  0
LINE
  5
28EA
  8
0
 62
     1
 10
4734.2943510991999574
 20
-3214.4439793188989825
 30
0.0
 11
4773.3790276142817675
 21
-3214.4439793188989825
 31
0.0
  0
POLYLINE
  5
28EB
  8
0
 62
     1
 66
     1
 10
0.0
 20
0.0
 30
0.0
 70
     1
  0
VERTEX
  5
31A1
  8
0
 62
     1
 10
4773.3790276142817675
 20
-3223.9436318961938923
 30
0.0
  0
VERTEX
  5
31A2
  8
0
 62
     1
 10
4787.43687671976204
 20
-3213.5958324315938626
 30
0.0
  0
VERTEX
  5
31A3
  8
0
 62
     1
 10
4773.3790276142817675
 20
-3204.3544193888501468
 30
0.0
  0
SEQEND
  5
31A4
  8
0
 62
     1
  0
INSERT
  5
28EC
  8
0
  2
*U549
 10
0.0
 20
0.0
 30
0.0
  0
INSERT
  5
28ED
  8
0
 62
     1
  2
*U491
 10
-1734.2640576947699174
 20
-3100.651011042070877
 30
0.0
  0
INSERT
  5
2926
  8
0
  2
*U552
 10
0.0
 20
0.0
 30
0.0
  0
INSERT
  5
292C
  8
0
  2
*U554
 10
0.0
 20
0.0
 30
0.0
  0
INSERT
  5
316D
  8
0
  2
*U566
 10
0.0
 20
0.0
 30
0.0
  0
ENDSEC
  0
EOF
