  0
SECTION
  2
HEADER
  9
$ACADVER
  1
AC1009
  9
$INSBASE
 10
0.0
 20
0.0
 30
0.0
  9
$EXTMIN
 10
1123.5290690654539958
 20
-2922.4379443467450983
 30
0.0
  9
$EXTMAX
 10
5068.3808145133143626
 20
1556.1413098203659047
 30
0.0
  9
$LIMMIN
 10
0.0
 20
0.0
  9
$LIMMAX
 10
420.0
 20
297.0
  9
$ORTHOMODE
 70
     1
  9
$REGENMODE
 70
     1
  9
$FILLMODE
 70
     1
  9
$QTEXTMODE
 70
     0
  9
$MIRRTEXT
 70
     0
  9
$DRAGMODE
 70
     2
  9
$LTSCALE
 40
1.0
  9
$OSMODE
 70
    37
  9
$ATTMODE
 70
     1
  9
$TEXTSIZE
 40
2.5
  9
$TRACEWID
 40
1.0
  9
$TEXTSTYLE
  7
STANDARD
  9
$CLAYER
  8
0
  9
$CELTYPE
  6
BYLAYER
  9
$CECOLOR
 62
   256
  9
$DIMSCALE
 40
1.0
  9
$DIMASZ
 40
15.0
  9
$DIMEXO
 40
0.625
  9
$DIMDLI
 40
4.0
  9
$DIMRND
 40
0.0
  9
$DIMDLE
 40
0.0
  9
$DIMEXE
 40
1.25
  9
$DIMTP
 40
0.0
  9
$DIMTM
 40
0.0
  9
$DIMTXT
 40
15.0
  9
$DIMCEN
 40
-2.5
  9
$DIMTSZ
 40
0.0
  9
$DIMTOL
 70
     0
  9
$DIMLIM
 70
     0
  9
$DIMTIH
 70
     0
  9
$DIMTOH
 70
     1
  9
$DIMSE1
 70
     1
  9
$DIMSE2
 70
     1
  9
$DIMTAD
 70
     1
  9
$DIMZIN
 70
     8
  9
$DIMBLK
  1

  9
$DIMASO
 70
     1
  9
$DIMSHO
 70
     1
  9
$DIMPOST
  1
mm
  9
$DIMAPOST
  1

  9
$DIMALT
 70
     0
  9
$DIMALTD
 70
     3
  9
$DIMALTF
 40
0.03937007874016
  9
$DIMLFAC
 40
1.0
  9
$DIMTOFL
 70
     1
  9
$DIMTVP
 40
0.0
  9
$DIMTIX
 70
     0
  9
$DIMSOXD
 70
     0
  9
$DIMSAH
 70
     0
  9
$DIMBLK1
  1

  9
$DIMBLK2
  1

  9
$DIMSTYLE
  2
ISO-25
  9
$DIMCLRD
 70
     1
  9
$DIMCLRE
 70
     0
  9
$DIMCLRT
 70
     1
  9
$DIMTFAC
 40
1.0
  9
$DIMGAP
 40
10.0
  9
$LUNITS
 70
     2
  9
$LUPREC
 70
     4
  9
$SKETCHINC
 40
1.0
  9
$FILLETRAD
 40
90.0
  9
$AUNITS
 70
     0
  9
$AUPREC
 70
     0
  9
$MENU
  1
.
  9
$ELEVATION
 40
0.0
  9
$PELEVATION
 40
0.0
  9
$THICKNESS
 40
0.0
  9
$LIMCHECK
 70
     0
  9
$BLIPMODE
 70
     0
  9
$CHAMFERA
 40
0.0
  9
$CHAMFERB
 40
0.0
  9
$SKPOLY
 70
     0
  9
$TDCREATE
 40
2459153.5839699069038033
  9
$TDUPDATE
 40
2459837.6538310190662742
  9
$TDINDWG
 40
0.1588551505
  9
$TDUSRTIMER
 40
0.1588549537
  9
$USRTIMER
 70
     1
  9
$ANGBASE
 50
0.0
  9
$ANGDIR
 70
     0
  9
$PDMODE
 70
     0
  9
$PDSIZE
 40
0.0
  9
$PLINEWID
 40
0.0
  9
$COORDS
 70
     1
  9
$SPLFRAME
 70
     0
  9
$SPLINETYPE
 70
     6
  9
$SPLINESEGS
 70
     8
  9
$ATTDIA
 70
     1
  9
$ATTREQ
 70
     1
  9
$HANDLING
 70
     1
  9
$HANDSEED
  5
2EF6
  9
$SURFTAB1
 70
     6
  9
$SURFTAB2
 70
     6
  9
$SURFTYPE
 70
     6
  9
$SURFU
 70
     6
  9
$SURFV
 70
     6
  9
$UCSNAME
  2

  9
$UCSORG
 10
0.0
 20
0.0
 30
0.0
  9
$UCSXDIR
 10
1.0
 20
0.0
 30
0.0
  9
$UCSYDIR
 10
0.0
 20
1.0
 30
0.0
  9
$PUCSNAME
  2

  9
$PUCSORG
 10
0.0
 20
0.0
 30
0.0
  9
$PUCSXDIR
 10
1.0
 20
0.0
 30
0.0
  9
$PUCSYDIR
 10
0.0
 20
1.0
 30
0.0
  9
$USERI1
 70
     0
  9
$USERI2
 70
     0
  9
$USERI3
 70
     0
  9
$USERI4
 70
     0
  9
$USERI5
 70
     0
  9
$USERR1
 40
0.0
  9
$USERR2
 40
0.0
  9
$USERR3
 40
0.0
  9
$USERR4
 40
0.0
  9
$USERR5
 40
0.0
  9
$WORLDVIEW
 70
     1
  9
$SHADEDGE
 70
     3
  9
$SHADEDIF
 70
    70
  9
$TILEMODE
 70
     1
  9
$MAXACTVP
 70
    64
  9
$PLIMCHECK
 70
     0
  9
$PEXTMIN
 10
0.0
 20
0.0
 30
0.0
  9
$PEXTMAX
 10
0.0
 20
0.0
 30
0.0
  9
$PLIMMIN
 10
0.0
 20
0.0
  9
$PLIMMAX
 10
12.0
 20
9.0
  9
$UNITMODE
 70
     0
  9
$VISRETAIN
 70
     1
  9
$PLINEGEN
 70
     0
  9
$PSLTSCALE
 70
     1
  0
ENDSEC
  0
SECTION
  2
TABLES
  0
TABLE
  2
VPORT
 70
     1
  0
VPORT
  2
*ACTIVE
 70
     0
 10
0.0
 20
0.0
 11
1.0
 21
1.0
 12
1916.7467532816719995
 22
-2208.3995344024970109
 13
0.0
 23
0.0
 14
10.0
 24
10.0
 15
10.0
 25
10.0
 16
0.0
 26
0.0
 36
1.0
 17
0.0
 27
0.0
 37
0.0
 40
1968.398534494237083
 41
1.4482758620689651
 42
50.0
 43
0.0
 44
0.0
 50
0.0
 51
0.0
 71
     0
 72
  1000
 73
     1
 74
     3
 75
     0
 76
     0
 77
     0
 78
     0
  0
ENDTAB
  0
TABLE
  2
LTYPE
 70
     2
  0
LTYPE
  2
CONTINUOUS
 70
     0
  3
Solid line
 72
    65
 73
     0
 40
0.0
  0
ENDTAB
  0
TABLE
  2
LAYER
 70
     2
  0
LAYER
  2
0
 70
     0
 62
     7
  6
CONTINUOUS
  0
LAYER
  2
DEFPOINTS
 70
     0
 62
     7
  6
CONTINUOUS
  0
ENDTAB
  0
TABLE
  2
STYLE
 70
     2
  0
STYLE
  2
STANDARD
 70
     0
 40
0.0
 41
1.0
 50
0.0
 71
     0
 42
2.5
  3
txt
  4

  0
STYLE
  2
ANNOTATIVE
 70
     0
 40
0.0
 41
1.0
 50
0.0
 71
     0
 42
0.2
  3
txt
  4

  0
ENDTAB
  0
TABLE
  2
VIEW
 70
     0
  0
ENDTAB
  0
TABLE
  2
UCS
 70
     0
  0
ENDTAB
  0
TABLE
  2
APPID
 70
     9
  0
APPID
  2
ACAD
 70
     0
  0
APPID
  2
ACADANNOTATIVE
 70
     0
  0
APPID
  2
ACAD_PSEXT
 70
     0
  0
APPID
  2
ACAD_EXEMPT_FROM_CAD_STANDARDS
 70
     0
  0
APPID
  2
ACAD_DSTYLE_DIMJAG
 70
     0
  0
APPID
  2
ACAD_DSTYLE_DIMTALN
 70
     0
  0
APPID
  2
ACAD_TC
 70
     0
  0
APPID
  2
ACAD_NAV_VCDISPLAY
 70
     0
  0
APPID
  2
ACAD_MLEADERVER
 70
     0
  0
ENDTAB
  0
TABLE
  2
DIMSTYLE
 70
     3
  0
DIMSTYLE
  2
STANDARD
 70
     0
  3

  4

  5

  6

  7

 40
1.0
 41
0.18
 42
0.0625
 43
0.38
 44
0.18
 45
0.0
 46
0.0
 47
0.0
 48
0.0
140
0.18
141
0.09
142
0.0
143
25.3999999999999986
144
1.0
145
0.0
146
1.0
147
0.09
 71
     0
 72
     0
 73
     1
 74
     1
 75
     0
 76
     0
 77
     0
 78
     0
170
     0
171
     2
172
     0
173
     0
174
     0
175
     0
176
     0
177
     0
178
     0
  0
DIMSTYLE
  2
ANNOTATIVE
 70
     0
  3

  4

  5

  6

  7

 40
1.0
 41
0.18
 42
0.0625
 43
0.38
 44
0.18
 45
0.0
 46
0.0
 47
0.0
 48
0.0
140
0.18
141
0.09
142
0.0
143
25.3999999999999986
144
1.0
145
0.0
146
1.0
147
0.09
 71
     0
 72
     0
 73
     1
 74
     1
 75
     0
 76
     0
 77
     0
 78
     0
170
     0
171
     2
172
     0
173
     0
174
     0
175
     0
176
     0
177
     0
178
     0
  0
DIMSTYLE
  2
ISO-25
 70
     0
  3

  4

  5

  6

  7

 40
1.0
 41
15.0
 42
0.625
 43
4.0
 44
1.25
 45
0.0
 46
0.0
 47
0.0
 48
0.0
140
15.0
141
-2.5
142
0.0
143
0.03937007874016
144
1.0
145
0.0
146
1.0
147
10.0
 71
     0
 72
     0
 73
     0
 74
     1
 75
     1
 76
     1
 77
     1
 78
     8
170
     0
171
     3
172
     1
173
     0
174
     0
175
     0
176
     0
177
     0
178
     0
  0
ENDTAB
  0
ENDSEC
  0
SECTION
  2
BLOCKS
  0
BLOCK
  8
0
  2
$MODEL_SPACE
 70
     0
 10
0.0
 20
0.0
 30
0.0
  3
$MODEL_SPACE
  1

  0
ENDBLK
  5
2D27
  8
0
  0
BLOCK
 67
     1
  8
0
  2
$PAPER_SPACE
 70
     0
 10
0.0
 20
0.0
 30
0.0
  3
$PAPER_SPACE
  1

  0
ENDBLK
  5
2D23
 67
     1
  8
0
  0
BLOCK
  8
0
  2
*U2
 70
     1
 10
0.0
 20
0.0
 30
0.0
  3
*U2
  1

  0
TEXT
  5
1740
  8
0
 62
     0
 10
1773.8054950060359261
 20
1363.6759827256380504
 30
0.0
 40
15.0
  1
765mm
  0
ENDBLK
  5
1742
  8
0
  0
BLOCK
  8
0
  2
*U3
 70
     1
 10
0.0
 20
0.0
 30
0.0
  3
*U3
  1

  0
TEXT
  5
1744
  8
0
 62
     0
 10
1773.8054950060359261
 20
1411.3712812502319593
 30
0.0
 40
15.0
  1
768mm
  0
ENDBLK
  5
1746
  8
0
  0
BLOCK
  8
0
  2
*U4
 70
     1
 10
0.0
 20
0.0
 30
0.0
  3
*U4
  1

  0
TEXT
  5
174C
  8
0
 62
     0
 10
1365.1520094569189041
 20
1074.4567409531009616
 30
0.0
 40
15.0
  1
409,4mm
 50
90.0
  0
ENDBLK
  5
174E
  8
0
  0
BLOCK
  8
0
  2
*U5
 70
     1
 10
0.0
 20
0.0
 30
0.0
  3
*U5
  1

  0
TEXT
  5
1748
  8
0
 62
     0
 10
1286.103335889049049
 20
1075.7067409531009616
 30
0.0
 40
15.0
  1
412,4mm
 50
90.0
  0
ENDBLK
  5
174A
  8
0
  0
BLOCK
  8
0
  2
*U6
 70
     1
 10
0.0
 20
0.0
 30
0.0
  3
*U6
  1

  0
TEXT
  5
1754
  8
0
 62
     1
 10
1269.4125003201058917
 20
868.2083552055750033
 30
0.0
 40
15.0
  1
R11,5mm
  0
ENDBLK
  5
1756
  8
0
  0
BLOCK
  8
0
  2
*U7
 70
     1
 10
0.0
 20
0.0
 30
0.0
  3
*U7
  1

  0
TEXT
  5
1750
  8
0
 62
     0
 10
1288.723562243437982
 20
1364.7052117362570698
 30
0.0
 40
15.0
  1
R13mm
  0
ENDBLK
  5
1752
  8
0
  0
BLOCK
  8
0
  2
*U8
 70
     1
 10
0.0
 20
0.0
 30
0.0
  3
*U8
  1

  0
TEXT
  5
17E3
  8
0
 62
     1
 10
3307.0962677963461829
 20
780.6076982128375903
 30
0.0
 40
15.0
  1
R11,5mm
  0
ENDBLK
  5
17E5
  8
0
  0
BLOCK
  8
0
  2
*U9
 70
     1
 10
0.0
 20
0.0
 30
0.0
  3
*U9
  1

  0
TEXT
  5
17BF
  8
0
 62
     0
 10
3329.7393346611088418
 20
1293.8947544720829228
 30
0.0
 40
15.0
  1
R13mm
  0
ENDBLK
  5
17C1
  8
0
  0
BLOCK
  8
0
  2
*U10
 70
     1
 10
0.0
 20
0.0
 30
0.0
  3
*U10
  1

  0
TEXT
  5
17D3
  8
0
 62
     0
 10
3791.4516008586069802
 20
1334.9201902567990601
 30
0.0
 40
15.0
  1
765mm
  0
ENDBLK
  5
17D5
  8
0
  0
BLOCK
  8
0
  2
*U11
 70
     1
 10
0.0
 20
0.0
 30
0.0
  3
*U11
  1

  0
TEXT
  5
17C3
  8
0
 62
     0
 10
3791.4516008586069802
 20
1403.5830317535610448
 30
0.0
 40
15.0
  1
768mm
  0
ENDBLK
  5
17C5
  8
0
  0
BLOCK
  8
0
  2
*U12
 70
     1
 10
0.0
 20
0.0
 30
0.0
  3
*U12
  1

  0
TEXT
  5
17D7
  8
0
 62
     0
 10
3391.0145964110911336
 20
1008.0235812630239707
 30
0.0
 40
15.0
  1
434,8mm
 50
90.0
  0
ENDBLK
  5
17D9
  8
0
  0
BLOCK
  8
0
  2
*U13
 70
     1
 10
0.0
 20
0.0
 30
0.0
  3
*U13
  1

  0
TEXT
  5
17C7
  8
0
 62
     0
 10
3335.0546062775410974
 20
1008.0235812630239707
 30
0.0
 40
15.0
  1
437,8mm
 50
90.0
  0
ENDBLK
  5
17C9
  8
0
  0
BLOCK
  8
0
  2
*U14
 70
     1
 10
0.0
 20
0.0
 30
0.0
  3
*U14
  1

  0
TEXT
  5
1862
  8
0
 62
     0
 10
1272.843584335146943
 20
-658.4855497760837579
 30
0.0
 40
15.0
  1
R11,5mm
  0
ENDBLK
  5
1864
  8
0
  0
BLOCK
  8
0
  2
*U15
 70
     1
 10
0.0
 20
0.0
 30
0.0
  3
*U15
  1

  0
TEXT
  5
184E
  8
0
 62
     0
 10
1271.9804810912039557
 20
-189.4122716983191879
 30
0.0
 40
15.0
  1
R13mm
  0
ENDBLK
  5
1850
  8
0
  0
BLOCK
  8
0
  2
*U16
 70
     1
 10
0.0
 20
0.0
 30
0.0
  3
*U16
  1

  0
TEXT
  5
185E
  8
0
 62
     0
 10
1650.9059252656709305
 20
-154.6348147411717946
 30
0.0
 40
15.0
  1
612,6mm
  0
ENDBLK
  5
1860
  8
0
  0
BLOCK
  8
0
  2
*U17
 70
     1
 10
0.0
 20
0.0
 30
0.0
  3
*U17
  1

  0
TEXT
  5
1852
  8
0
 62
     0
 10
1650.9059252656709305
 20
-92.364653748892124
 30
0.0
 40
15.0
  1
615,6mm
  0
ENDBLK
  5
1854
  8
0
  0
BLOCK
  8
0
  2
*U18
 70
     1
 10
0.0
 20
0.0
 30
0.0
  3
*U18
  1

  0
TEXT
  5
185A
  8
0
 62
     0
 10
1338.0398741560591134
 20
-452.6125945055371744
 30
0.0
 40
15.0
  1
409,4mm
 50
90.0
  0
ENDBLK
  5
185C
  8
0
  0
BLOCK
  8
0
  2
*U19
 70
     1
 10
0.0
 20
0.0
 30
0.0
  3
*U19
  1

  0
TEXT
  5
1856
  8
0
 62
     0
 10
1296.3053254538990586
 20
-451.3625945055371176
 30
0.0
 40
15.0
  1
412,4mm
 50
90.0
  0
ENDBLK
  5
1858
  8
0
  0
BLOCK
  8
0
  2
*U20
 70
     1
 10
0.0
 20
0.0
 30
0.0
  3
*U20
  1

  0
TEXT
  5
190E
  8
0
 62
     0
 10
3404.1830719876597868
 20
-183.7732856982810858
 30
0.0
 40
15.0
  1
R13mm
  0
ENDBLK
  5
1910
  8
0
  0
BLOCK
  8
0
  2
*U21
 70
     1
 10
0.0
 20
0.0
 30
0.0
  3
*U21
  1

  0
TEXT
  5
191E
  8
0
 62
     0
 10
3395.6837759694290071
 20
-669.2009184605324208
 30
0.0
 40
15.0
  1
R11,5mm
  0
ENDBLK
  5
1920
  8
0
  0
BLOCK
  8
0
  2
*U22
 70
     1
 10
0.0
 20
0.0
 30
0.0
  3
*U22
  1

  0
TEXT
  5
191A
  8
0
 62
     0
 10
3896.0441518291490866
 20
-154.6595801081174955
 30
0.0
 40
15.0
  1
790,4mm
  0
ENDBLK
  5
191C
  8
0
  0
BLOCK
  8
0
  2
*U23
 70
     1
 10
0.0
 20
0.0
 30
0.0
  3
*U23
  1

  0
TEXT
  5
1912
  8
0
 62
     0
 10
3894.7941518291490866
 20
-84.8489456273473479
 30
0.0
 40
15.0
  1
793,4mm
  0
ENDBLK
  5
1914
  8
0
  0
BLOCK
  8
0
  2
*U24
 70
     1
 10
0.0
 20
0.0
 30
0.0
  3
*U24
  1

  0
TEXT
  5
192A
  8
0
 62
     0
 10
3482.0321730127470801
 20
-467.99838597883479
 30
0.0
 40
15.0
  1
409,4mm
 50
90.0
  0
ENDBLK
  5
192C
  8
0
  0
BLOCK
  8
0
  2
*U25
 70
     1
 10
0.0
 20
0.0
 30
0.0
  3
*U25
  1

  0
TEXT
  5
1916
  8
0
 62
     0
 10
3412.2419915677569406
 20
-466.74838597883479
 30
0.0
 40
15.0
  1
412,4mm
 50
90.0
  0
ENDBLK
  5
1918
  8
0
  0
BLOCK
  8
0
  2
*U26
 70
     1
 10
0.0
 20
0.0
 30
0.0
  3
*U26
  1

  0
TEXT
  5
199D
  8
0
 62
     0
 10
1325.8986404251679687
 20
-2304.4913468572840429
 30
0.0
 40
15.0
  1
R11,5mm
  0
ENDBLK
  5
199F
  8
0
  0
BLOCK
  8
0
  2
*U27
 70
     1
 10
0.0
 20
0.0
 30
0.0
  3
*U27
  1

  0
TEXT
  5
19A1
  8
0
 62
     0
 10
1365.0559459830749347
 20
-1813.18341070622796
 30
0.0
 40
15.0
  1
R13mm
  0
ENDBLK
  5
19A3
  8
0
  0
BLOCK
  8
0
  2
*U28
 70
     1
 10
0.0
 20
0.0
 30
0.0
  3
*U28
  1

  0
TEXT
  5
19AD
  8
0
 62
     0
 10
1827.8240405260469288
 20
-1810.2196501409689517
 30
0.0
 40
15.0
  1
765mm
  0
ENDBLK
  5
19AF
  8
0
  0
BLOCK
  8
0
  2
*U29
 70
     1
 10
0.0
 20
0.0
 30
0.0
  3
*U29
  1

  0
TEXT
  5
19A5
  8
0
 62
     0
 10
1827.8240405260469288
 20
-1756.4281172449350379
 30
0.0
 40
15.0
  1
768mm
  0
ENDBLK
  5
19A7
  8
0
  0
BLOCK
  8
0
  2
*U30
 70
     1
 10
0.0
 20
0.0
 30
0.0
  3
*U30
  1

  0
TEXT
  5
19B1
  8
0
 62
     0
 10
1418.3915712680900469
 20
-2100.6185320968002088
 30
0.0
 40
15.0
  1
422,1mm
 50
90.0
  0
ENDBLK
  5
19B3
  8
0
  0
BLOCK
  8
0
  2
*U31
 70
     1
 10
0.0
 20
0.0
 30
0.0
  3
*U31
  1

  0
TEXT
  5
19A9
  8
0
 62
     0
 10
1350.2418738076739828
 20
-2100.6185320968002088
 30
0.0
 40
15.0
  1
425,1mm
 50
90.0
  0
ENDBLK
  5
19AB
  8
0
  0
BLOCK
  8
0
  2
*U32
 70
     1
 10
0.0
 20
0.0
 30
0.0
  3
*U32
  1

  0
TEXT
  5
1AFA
  8
0
 62
     0
 10
3395.746444144418092
 20
-1810.9467260848659862
 30
0.0
 40
15.0
  1
R91.5mm
  0
ENDBLK
  5
1AFC
  8
0
  0
BLOCK
  8
0
  2
*U33
 70
     1
 10
0.0
 20
0.0
 30
0.0
  3
*U33
  1

  0
TEXT
  5
1AFE
  8
0
 62
     0
 10
3402.4099967357678906
 20
-1767.9313488485061043
 30
0.0
 40
15.0
  1
R93mm
  0
ENDBLK
  5
1B00
  8
0
  0
BLOCK
  8
0
  2
*U34
 70
     1
 10
0.0
 20
0.0
 30
0.0
  3
*U34
  1

  0
TEXT
  5
1B02
  8
0
 62
     0
 10
3468.9494958702930489
 20
-2394.6561111797391277
 30
0.0
 40
15.0
  1
R93mm
  0
ENDBLK
  5
1B04
  8
0
  0
BLOCK
  8
0
  2
*U35
 70
     1
 10
0.0
 20
0.0
 30
0.0
  3
*U35
  1

  0
TEXT
  5
1B06
  8
0
 62
     0
 10
3406.3622071330610197
 20
-2356.7872715325088393
 30
0.0
 40
15.0
  1
R91,5mm
  0
ENDBLK
  5
1B08
  8
0
  0
BLOCK
  8
0
  2
*U36
 70
     1
 10
0.0
 20
0.0
 30
0.0
  3
*U36
  1

  0
TEXT
  5
1B0A
  8
0
 62
     0
 10
4094.4359103019860413
 20
-1807.1606169461649642
 30
0.0
 40
15.0
  1
R93mm
  0
ENDBLK
  5
1B0C
  8
0
  0
BLOCK
  8
0
  2
*U37
 70
     1
 10
0.0
 20
0.0
 30
0.0
  3
*U37
  1

  0
TEXT
  5
1B0E
  8
0
 62
     0
 10
4072.2988065601971357
 20
-1778.460421032837985
 30
0.0
 40
15.0
  1
R91,5mm
  0
ENDBLK
  5
1B10
  8
0
  0
BLOCK
  8
0
  2
*U38
 70
     1
 10
0.0
 20
0.0
 30
0.0
  3
*U38
  1

  0
TEXT
  5
1B1A
  8
0
 62
     0
 10
3910.8101558589478373
 20
-1748.9530640084039987
 30
0.0
 40
15.0
  1
767,09mm
  0
ENDBLK
  5
1B1C
  8
0
  0
BLOCK
  8
0
  2
*U39
 70
     1
 10
0.0
 20
0.0
 30
0.0
  3
*U39
  1

  0
TEXT
  5
1AF2
  8
0
 62
     0
 10
4386.6753706242079716
 20
-2156.849838048104175
 30
0.0
 40
15.0
  1
409,57mm
 50
90.0
  0
ENDBLK
  5
1AF4
  8
0
  0
BLOCK
  8
0
  2
*U40
 70
     1
 10
0.0
 20
0.0
 30
0.0
  3
*U40
  1

  0
TEXT
  5
1B16
  8
0
 62
     0
 10
3496.8513027048388722
 20
-2124.4559209450521848
 30
0.0
 40
15.0
  1
476,28mm
 50
90.0
  0
ENDBLK
  5
1B18
  8
0
  0
BLOCK
  8
0
  2
*U41
 70
     1
 10
0.0
 20
0.0
 30
0.0
  3
*U41
  1

  0
TEXT
  5
1AF6
  8
0
 62
     0
 10
4438.9274606256649349
 20
-2155.5992961749998358
 30
0.0
 40
15.0
  1
412,57mm
 50
90.0
  0
ENDBLK
  5
1AF8
  8
0
  0
BLOCK
  8
0
  2
*U42
 70
     1
 10
0.0
 20
0.0
 30
0.0
  3
*U42
  1

  0
TEXT
  5
1B12
  8
0
 62
     0
 10
3442.1723643698228443
 20
-2124.4555703358410028
 30
0.0
 40
15.0
  1
479,28mm
 50
90.0
  0
ENDBLK
  5
1B14
  8
0
  0
BLOCK
  8
0
  2
*U43
 70
     1
 10
0.0
 20
0.0
 30
0.0
  3
*U43
  1

  0
TEXT
  5
1B1E
  8
0
 62
     0
 10
3915.8226340135329337
 20
-1711.8623011932741065
 30
0.0
 40
15.0
  1
770,11mm
  0
ENDBLK
  5
1B20
  8
0
  0
BLOCK
  8
0
  2
*U44
 70
     1
 10
0.0
 20
0.0
 30
0.0
  3
*U44
  1

  0
TEXT
  5
16D1
  8
0
 10
1183.0757341531859765
 20
413.2604162302682198
 30
0.0
 40
17.0
  1
TOPZERO
  0
TEXT
  5
16D2
  8
0
 10
1183.0757341531859765
 20
384.9270828969347917
 30
0.0
 40
17.0
  1
www.topzero.com
  0
ENDBLK
  5
16D4
  8
0
  0
BLOCK
  8
0
  2
*U45
 70
     1
 10
0.0
 20
0.0
 30
0.0
  3
*U45
  1

  0
TEXT
  5
16D6
  8
0
 10
1708.4965215818319848
 20
425.8445615022768038
 30
0.0
 40
18.0
  1
30'' LARGE SINGLE BOWL
  0
ENDBLK
  5
16D8
  8
0
  0
BLOCK
  8
0
  2
*U46
 70
     1
 10
0.0
 20
0.0
 30
0.0
  3
*U46
  1

  0
TEXT
  5
16DA
  8
0
 10
1525.6312993912649745
 20
318.3390969540786841
 30
0.0
 40
15.0
  1
Stainless
  0
TEXT
  5
16DB
  8
0
 10
1525.6312993912649745
 20
293.3390969540786841
 30
0.0
 40
15.0
  1
steel
  0
ENDBLK
  5
16DD
  8
0
  0
BLOCK
  8
0
  2
*U47
 70
     1
 10
0.0
 20
0.0
 30
0.0
  3
*U47
  1

  0
TEXT
  5
16DF
  8
0
 10
1931.2925715872349883
 20
299.08198598594538
 30
0.0
 40
21.9959999999999987
  1
TZ C761
  0
ENDBLK
  5
16E1
  8
0
  0
BLOCK
  8
0
  2
*U48
 70
     1
 10
0.0
 20
0.0
 30
0.0
  3
*U48
  1

  0
TEXT
  5
16E3
  8
0
 10
2402.1772355153489116
 20
302.6437323186988237
 30
0.0
 40
20.0
  1
10/2020
  0
ENDBLK
  5
16E5
  8
0
  0
BLOCK
  8
0
  2
*U49
 70
     1
 10
0.0
 20
0.0
 30
0.0
  3
*U49
  1

  0
TEXT
  5
16E7
  8
0
 10
2557.218219053258963
 20
1434.6803167469809068
 30
0.0
 40
20.0
  1
mm
  0
TEXT
  5
16E8
  8
0
 10
2530.5515523865919931
 20
1401.346983413648104
 30
0.0
 40
20.0
  1
[
  0
TEXT
  5
16E9
  8
0
 10
2543.8848857199259328
 20
1401.346983413648104
 30
0.0
 40
20.0
  1
inch
  0
TEXT
  5
16EA
  8
0
 10
2610.5515523865919931
 20
1401.346983413648104
 30
0.0
 40
20.0
  1
]
  0
ENDBLK
  5
16EC
  8
0
  0
BLOCK
  8
0
  2
*U50
 70
     1
 10
0.0
 20
0.0
 30
0.0
  3
*U50
  1

  0
TEXT
  5
16EE
  8
0
 10
2293.6276869590110437
 20
481.0982783550190902
 30
0.0
 40
12.0
  1
This template file is meant to be a guideline
  0
TEXT
  5
16EF
  8
0
 10
2293.6276869590110437
 20
461.0982783550190902
 30
0.0
 40
12.0
  1
and must be compared with the actual product
  0
TEXT
  5
16F0
  8
0
 10
2293.6276869590110437
 20
441.0982783550193744
 30
0.0
 40
12.0
  1
which should always be present to ensure a
  0
TEXT
  5
16F1
  8
0
 10
2293.6276869590110437
 20
421.0982783550193744
 30
0.0
 40
12.0
  1
perfect cut.Testing on a scrap piece before
  0
TEXT
  5
16F2
  8
0
 10
2293.6276869590110437
 20
401.0982783550190902
 30
0.0
 40
12.0
  1
the final cut is always recommended.
  0
TEXT
  5
16F3
  8
0
 10
2293.6276869590110437
 20
381.0982783550193744
 30
0.0
 40
12.0
  1
UKINOX IS NOT RESPONSIBLE FOR ANY IMPROPERLY
  0
TEXT
  5
16F4
  8
0
 10
2293.6276869590110437
 20
361.0982783550193744
 30
0.0
 40
12.0
  1
CUT COUNTERTOP OR AN IMPROPER INSTALLATION.
  0
ENDBLK
  5
16F6
  8
0
  0
BLOCK
  8
0
  2
*U51
 70
     1
 10
0.0
 20
0.0
 30
0.0
  3
*U51
  1

  0
TEXT
  5
1700
  8
0
 62
     1
 10
2265.9817174077111304
 20
1195.3163772867960688
 30
0.0
 40
15.0
  1
Topzero zero reveal
  0
ENDBLK
  5
1702
  8
0
  0
BLOCK
  8
0
  2
*U52
 70
     1
 10
0.0
 20
0.0
 30
0.0
  3
*U52
  1

  0
TEXT
  5
1770
  8
0
 10
3242.8345156678319654
 20
413.2604155517029767
 30
0.0
 40
17.0
  1
TOPZERO
  0
TEXT
  5
1771
  8
0
 10
3242.8345156678319654
 20
384.927082218369776
 30
0.0
 40
17.0
  1
www.topzero.com
  0
ENDBLK
  5
1773
  8
0
  0
BLOCK
  8
0
  2
*U53
 70
     1
 10
0.0
 20
0.0
 30
0.0
  3
*U53
  1

  0
TEXT
  5
1775
  8
0
 10
3768.255303096478201
 20
425.8445608237120723
 30
0.0
 40
18.0
  1
30'' LARGE SINGLE BOWL
  0
ENDBLK
  5
1777
  8
0
  0
BLOCK
  8
0
  2
*U54
 70
     1
 10
0.0
 20
0.0
 30
0.0
  3
*U54
  1

  0
TEXT
  5
1779
  8
0
 10
3585.3900809059118728
 20
318.3390962755137821
 30
0.0
 40
15.0
  1
Stainless
  0
TEXT
  5
177A
  8
0
 10
3585.3900809059118728
 20
293.3390962755137821
 30
0.0
 40
15.0
  1
steel
  0
ENDBLK
  5
177C
  8
0
  0
BLOCK
  8
0
  2
*U55
 70
     1
 10
0.0
 20
0.0
 30
0.0
  3
*U55
  1

  0
TEXT
  5
177E
  8
0
 10
3900.6070740259169725
 20
302.368111872211216
 30
0.0
 40
21.9959999999999987
  1
TZ C763 - C763 ADA
  0
ENDBLK
  5
1780
  8
0
  0
BLOCK
  8
0
  2
*U56
 70
     1
 10
0.0
 20
0.0
 30
0.0
  3
*U56
  1

  0
TEXT
  5
1782
  8
0
 10
4461.9360170299933088
 20
302.643731640133808
 30
0.0
 40
20.0
  1
10/2020
  0
ENDBLK
  5
1784
  8
0
  0
BLOCK
  8
0
  2
*U57
 70
     1
 10
0.0
 20
0.0
 30
0.0
  3
*U57
  1

  0
TEXT
  5
1786
  8
0
 10
4616.977000567903815
 20
1434.6803160684160048
 30
0.0
 40
20.0
  1
mm
  0
TEXT
  5
1787
  8
0
 10
4590.3103339012359356
 20
1401.3469827350829746
 30
0.0
 40
20.0
  1
[
  0
TEXT
  5
1788
  8
0
 10
4603.6436672345698753
 20
1401.3469827350829746
 30
0.0
 40
20.0
  1
inch
  0
TEXT
  5
1789
  8
0
 10
4670.3103339012368451
 20
1401.3469827350829746
 30
0.0
 40
20.0
  1
]
  0
ENDBLK
  5
178B
  8
0
  0
BLOCK
  8
0
  2
*U58
 70
     1
 10
0.0
 20
0.0
 30
0.0
  3
*U58
  1

  0
TEXT
  5
178D
  8
0
 10
4353.3864684736563504
 20
481.0982776764544724
 30
0.0
 40
12.0
  1
This template file is meant to be a guideline
  0
TEXT
  5
178E
  8
0
 10
4353.3864684736563504
 20
461.0982776764544724
 30
0.0
 40
12.0
  1
and must be compared with the actual product
  0
TEXT
  5
178F
  8
0
 10
4353.3864684736563504
 20
441.0982776764543019
 30
0.0
 40
12.0
  1
which should always be present to ensure a
  0
TEXT
  5
1790
  8
0
 10
4353.3864684736563504
 20
421.0982776764541882
 30
0.0
 40
12.0
  1
perfect cut.Testing on a scrap piece before
  0
TEXT
  5
1791
  8
0
 10
4353.3864684736563504
 20
401.0982776764544155
 30
0.0
 40
12.0
  1
the final cut is always recommended.
  0
TEXT
  5
1792
  8
0
 10
4353.3864684736563504
 20
381.0982776764544724
 30
0.0
 40
12.0
  1
UKINOX IS NOT RESPONSIBLE FOR ANY IMPROPERLY
  0
TEXT
  5
1793
  8
0
 10
4353.3864684736563504
 20
361.0982776764544724
 30
0.0
 40
12.0
  1
CUT COUNTERTOP OR AN IMPROPER INSTALLATION.
  0
ENDBLK
  5
1795
  8
0
  0
BLOCK
  8
0
  2
*U59
 70
     1
 10
0.0
 20
0.0
 30
0.0
  3
*U59
  1

  0
TEXT
  5
179F
  8
0
 62
     1
 10
4283.6278232602826392
 20
1193.7303351201410351
 30
0.0
 40
15.0
  1
Topzero zero reveal
  0
ENDBLK
  5
17A1
  8
0
  0
BLOCK
  8
0
  2
*U60
 70
     1
 10
0.0
 20
0.0
 30
0.0
  3
*U60
  1

  0
TEXT
  5
17FF
  8
0
 10
1183.0757336488620695
 20
-1142.5162206099059858
 30
0.0
 40
17.0
  1
TOPZERO
  0
TEXT
  5
1800
  8
0
 10
1183.0757336488620695
 20
-1170.849553943239016
 30
0.0
 40
17.0
  1
www.topzero.com
  0
ENDBLK
  5
1802
  8
0
  0
BLOCK
  8
0
  2
*U61
 70
     1
 10
0.0
 20
0.0
 30
0.0
  3
*U61
  1

  0
TEXT
  5
1804
  8
0
 10
1708.4965210775080777
 20
-1129.9320753378970039
 30
0.0
 40
18.0
  1
24'' SINGLE BOWL
  0
ENDBLK
  5
1806
  8
0
  0
BLOCK
  8
0
  2
*U62
 70
     1
 10
0.0
 20
0.0
 30
0.0
  3
*U62
  1

  0
TEXT
  5
1808
  8
0
 10
1525.6312988869410674
 20
-1237.4375398860959194
 30
0.0
 40
15.0
  1
Stainless
  0
TEXT
  5
1809
  8
0
 10
1525.6312988869410674
 20
-1262.4375398860959194
 30
0.0
 40
15.0
  1
steel
  0
ENDBLK
  5
180B
  8
0
  0
BLOCK
  8
0
  2
*U63
 70
     1
 10
0.0
 20
0.0
 30
0.0
  3
*U63
  1

  0
TEXT
  5
180D
  8
0
 10
1850.704705429149044
 20
-1266.3889418206590562
 30
0.0
 40
21.9959999999999987
  1
TZ C608 - C608 ADA
  0
ENDBLK
  5
180F
  8
0
  0
BLOCK
  8
0
  2
*U64
 70
     1
 10
0.0
 20
0.0
 30
0.0
  3
*U64
  1

  0
TEXT
  5
1811
  8
0
 10
2402.177235011025914
 20
-1253.1329045214758935
 30
0.0
 40
20.0
  1
10/2020
  0
ENDBLK
  5
1813
  8
0
  0
BLOCK
  8
0
  2
*U65
 70
     1
 10
0.0
 20
0.0
 30
0.0
  3
*U65
  1

  0
TEXT
  5
1815
  8
0
 10
2557.2182185489350559
 20
-121.0963200931934978
 30
0.0
 40
20.0
  1
mm
  0
TEXT
  5
1816
  8
0
 10
2530.551551882268086
 20
-154.4296534265268974
 30
0.0
 40
20.0
  1
[
  0
TEXT
  5
1817
  8
0
 10
2543.8848852156020257
 20
-154.4296534265268974
 30
0.0
 40
20.0
  1
inch
  0
TEXT
  5
1818
  8
0
 10
2610.551551882268086
 20
-154.4296534265268974
 30
0.0
 40
20.0
  1
]
  0
ENDBLK
  5
181A
  8
0
  0
BLOCK
  8
0
  2
*U66
 70
     1
 10
0.0
 20
0.0
 30
0.0
  3
*U66
  1

  0
TEXT
  5
181C
  8
0
 10
2293.6276864546871366
 20
-1074.6783584851550586
 30
0.0
 40
12.0
  1
This template file is meant to be a guideline
  0
TEXT
  5
181D
  8
0
 10
2293.6276864546871366
 20
-1094.6783584851550586
 30
0.0
 40
12.0
  1
and must be compared with the actual product
  0
TEXT
  5
181E
  8
0
 10
2293.6276864546871366
 20
-1114.6783584851550586
 30
0.0
 40
12.0
  1
which should always be present to ensure a
  0
TEXT
  5
181F
  8
0
 10
2293.6276864546871366
 20
-1134.6783584851550586
 30
0.0
 40
12.0
  1
perfect cut.Testing on a scrap piece before
  0
TEXT
  5
1820
  8
0
 10
2293.6276864546871366
 20
-1154.6783584851550586
 30
0.0
 40
12.0
  1
the final cut is always recommended.
  0
TEXT
  5
1821
  8
0
 10
2293.6276864546871366
 20
-1174.6783584851550586
 30
0.0
 40
12.0
  1
UKINOX IS NOT RESPONSIBLE FOR ANY IMPROPERLY
  0
TEXT
  5
1822
  8
0
 10
2293.6276864546871366
 20
-1194.6783584851550586
 30
0.0
 40
12.0
  1
CUT COUNTERTOP OR AN IMPROPER INSTALLATION.
  0
ENDBLK
  5
1824
  8
0
  0
BLOCK
  8
0
  2
*U67
 70
     1
 10
0.0
 20
0.0
 30
0.0
  3
*U67
  1

  0
TEXT
  5
182E
  8
0
 62
     1
 10
2075.6321476673469988
 20
-313.1525680530240834
 30
0.0
 40
15.0
  1
Topzero zero reveal
  0
ENDBLK
  5
1830
  8
0
  0
BLOCK
  8
0
  2
*U68
 70
     1
 10
0.0
 20
0.0
 30
0.0
  3
*U68
  1

  0
TEXT
  5
18BE
  8
0
 10
3236.4999701169999753
 20
-1142.5162209372890629
 30
0.0
 40
17.0
  1
TOPZERO
  0
TEXT
  5
18BF
  8
0
 10
3236.4999701169999753
 20
-1170.8495542706220931
 30
0.0
 40
17.0
  1
www.topzero.com
  0
ENDBLK
  5
18C1
  8
0
  0
BLOCK
  8
0
  2
*U69
 70
     1
 10
0.0
 20
0.0
 30
0.0
  3
*U69
  1

  0
TEXT
  5
18C3
  8
0
 10
3567.4750922420857933
 20
-1116.9798926517139535
 30
0.0
 40
18.0
  1
31'' MEDIUM SINGLE BOWL WITH 11''
  0
TEXT
  5
18C4
  8
0
 10
3567.4750922420857933
 20
-1146.9798926517139535
 30
0.0
 40
18.0
  1
DRAINER
  0
ENDBLK
  5
18C6
  8
0
  0
BLOCK
  8
0
  2
*U70
 70
     1
 10
0.0
 20
0.0
 30
0.0
  3
*U70
  1

  0
TEXT
  5
18C8
  8
0
 10
3579.0555353550798827
 20
-1237.437540213478087
 30
0.0
 40
15.0
  1
Stainless
  0
TEXT
  5
18C9
  8
0
 10
3579.0555353550798827
 20
-1262.437540213478087
 30
0.0
 40
15.0
  1
steel
  0
ENDBLK
  5
18CB
  8
0
  0
BLOCK
  8
0
  2
*U71
 70
     1
 10
0.0
 20
0.0
 30
0.0
  3
*U71
  1

  0
TEXT
  5
18CD
  8
0
 10
3904.1289418972869498
 20
-1266.388942148041906
 30
0.0
 40
21.9959999999999987
  1
TZ W790
  0
ENDBLK
  5
18CF
  8
0
  0
BLOCK
  8
0
  2
*U72
 70
     1
 10
0.0
 20
0.0
 30
0.0
  3
*U72
  1

  0
TEXT
  5
18D1
  8
0
 10
4455.6014714791617735
 20
-1253.1329048488580611
 30
0.0
 40
20.0
  1
10/2020
  0
ENDBLK
  5
18D3
  8
0
  0
BLOCK
  8
0
  2
*U73
 70
     1
 10
0.0
 20
0.0
 30
0.0
  3
*U73
  1

  0
TEXT
  5
18D5
  8
0
 10
4610.6424550170722796
 20
-121.096320420575907
 30
0.0
 40
20.0
  1
mm
  0
TEXT
  5
18D6
  8
0
 10
4583.9757883504062193
 20
-154.4296537539092071
 30
0.0
 40
20.0
  1
[
  0
TEXT
  5
18D7
  8
0
 10
4597.3091216837392494
 20
-154.4296537539092071
 30
0.0
 40
20.0
  1
inch
  0
TEXT
  5
18D8
  8
0
 10
4663.9757883504062193
 20
-154.4296537539092071
 30
0.0
 40
20.0
  1
]
  0
ENDBLK
  5
18DA
  8
0
  0
BLOCK
  8
0
  2
*U74
 70
     1
 10
0.0
 20
0.0
 30
0.0
  3
*U74
  1

  0
TEXT
  5
18DC
  8
0
 10
4347.051922922824815
 20
-1074.6783588125369988
 30
0.0
 40
12.0
  1
This template file is meant to be a guideline
  0
TEXT
  5
18DD
  8
0
 10
4347.051922922824815
 20
-1094.6783588125369988
 30
0.0
 40
12.0
  1
and must be compared with the actual product
  0
TEXT
  5
18DE
  8
0
 10
4347.051922922824815
 20
-1114.6783588125369988
 30
0.0
 40
12.0
  1
which should always be present to ensure a
  0
TEXT
  5
18DF
  8
0
 10
4347.051922922824815
 20
-1134.6783588125369988
 30
0.0
 40
12.0
  1
perfect cut.Testing on a scrap piece before
  0
TEXT
  5
18E0
  8
0
 10
4347.051922922824815
 20
-1154.6783588125369988
 30
0.0
 40
12.0
  1
the final cut is always recommended.
  0
TEXT
  5
18E1
  8
0
 10
4347.051922922824815
 20
-1174.6783588125379083
 30
0.0
 40
12.0
  1
UKINOX IS NOT RESPONSIBLE FOR ANY IMPROPERLY
  0
TEXT
  5
18E2
  8
0
 10
4347.051922922824815
 20
-1194.6783588125379083
 30
0.0
 40
12.0
  1
CUT COUNTERTOP OR AN IMPROPER INSTALLATION.
  0
ENDBLK
  5
18E4
  8
0
  0
BLOCK
  8
0
  2
*U75
 70
     1
 10
0.0
 20
0.0
 30
0.0
  3
*U75
  1

  0
TEXT
  5
1906
  8
0
 62
     1
 10
4410.9203742308236542
 20
-332.7412813977788915
 30
0.0
 40
15.0
  1
Topzero zero reveal
  0
ENDBLK
  5
1908
  8
0
  0
BLOCK
  8
0
  2
*U76
 70
     1
 10
0.0
 20
0.0
 30
0.0
  3
*U76
  1

  0
TEXT
  5
194E
  8
0
 10
1183.0757324164731017
 20
-2745.3188376094581145
 30
0.0
 40
17.0
  1
TOPZERO
  0
TEXT
  5
194F
  8
0
 10
1183.0757324164731017
 20
-2773.6521709427911446
 30
0.0
 40
17.0
  1
www.topzero.com
  0
ENDBLK
  5
1951
  8
0
  0
BLOCK
  8
0
  2
*U77
 70
     1
 10
0.0
 20
0.0
 30
0.0
  3
*U77
  1

  0
TEXT
  5
1953
  8
0
 10
1708.49651984511911
 20
-2732.7346923374489052
 30
0.0
 40
18.0
  1
30'' MEDIUM EQUAL DOUBLE BOWL
  0
ENDBLK
  5
1955
  8
0
  0
BLOCK
  8
0
  2
*U78
 70
     1
 10
0.0
 20
0.0
 30
0.0
  3
*U78
  1

  0
TEXT
  5
1957
  8
0
 10
1525.6312976545520996
 20
-2840.2401568856471386
 30
0.0
 40
15.0
  1
Stainless
  0
TEXT
  5
1958
  8
0
 10
1525.6312976545520996
 20
-2865.2401568856471386
 30
0.0
 40
15.0
  1
steel
  0
ENDBLK
  5
195A
  8
0
  0
BLOCK
  8
0
  2
*U79
 70
     1
 10
0.0
 20
0.0
 30
0.0
  3
*U79
  1

  0
TEXT
  5
195C
  8
0
 10
1850.7047041967589394
 20
-2869.1915588202109575
 30
0.0
 40
21.9959999999999987
  1
TZ L360.55
  0
ENDBLK
  5
195E
  8
0
  0
BLOCK
  8
0
  2
*U80
 70
     1
 10
0.0
 20
0.0
 30
0.0
  3
*U80
  1

  0
TEXT
  5
1960
  8
0
 10
2402.1772337786369462
 20
-2855.9355215210271126
 30
0.0
 40
20.0
  1
10/2020
  0
ENDBLK
  5
1962
  8
0
  0
BLOCK
  8
0
  2
*U81
 70
     1
 10
0.0
 20
0.0
 30
0.0
  3
*U81
  1

  0
TEXT
  5
1964
  8
0
 10
2557.2182173165460881
 20
-1723.8989370927440632
 30
0.0
 40
20.0
  1
mm
  0
TEXT
  5
1965
  8
0
 10
2530.5515506498791183
 20
-1757.2322704260780029
 30
0.0
 40
20.0
  1
[
  0
TEXT
  5
1966
  8
0
 10
2543.8848839832130579
 20
-1757.2322704260780029
 30
0.0
 40
20.0
  1
inch
  0
TEXT
  5
1967
  8
0
 10
2610.5515506498791183
 20
-1757.2322704260780029
 30
0.0
 40
20.0
  1
]
  0
ENDBLK
  5
1969
  8
0
  0
BLOCK
  8
0
  2
*U82
 70
     1
 10
0.0
 20
0.0
 30
0.0
  3
*U82
  1

  0
TEXT
  5
196B
  8
0
 10
2293.6276852222990783
 20
-2677.4809754847069598
 30
0.0
 40
12.0
  1
This template file is meant to be a guideline
  0
TEXT
  5
196C
  8
0
 10
2293.6276852222990783
 20
-2697.4809754847069598
 30
0.0
 40
12.0
  1
and must be compared with the actual product
  0
TEXT
  5
196D
  8
0
 10
2293.6276852222990783
 20
-2717.4809754847060503
 30
0.0
 40
12.0
  1
which should always be present to ensure a
  0
TEXT
  5
196E
  8
0
 10
2293.6276852222990783
 20
-2737.4809754847060503
 30
0.0
 40
12.0
  1
perfect cut.Testing on a scrap piece before
  0
TEXT
  5
196F
  8
0
 10
2293.6276852222990783
 20
-2757.4809754847069598
 30
0.0
 40
12.0
  1
the final cut is always recommended.
  0
TEXT
  5
1970
  8
0
 10
2293.6276852222990783
 20
-2777.4809754847069598
 30
0.0
 40
12.0
  1
UKINOX IS NOT RESPONSIBLE FOR ANY IMPROPERLY
  0
TEXT
  5
1971
  8
0
 10
2293.6276852222990783
 20
-2797.4809754847060503
 30
0.0
 40
12.0
  1
CUT COUNTERTOP OR AN IMPROPER INSTALLATION.
  0
ENDBLK
  5
1973
  8
0
  0
BLOCK
  8
0
  2
*U83
 70
     1
 10
0.0
 20
0.0
 30
0.0
  3
*U83
  1

  0
TEXT
  5
198D
  8
0
 62
     1
 10
2320.0002629277228152
 20
-2026.3880380161949688
 30
0.0
 40
15.0
  1
Topzero zero reveal
  0
ENDBLK
  5
198F
  8
0
  0
BLOCK
  8
0
  2
*U84
 70
     1
 10
0.0
 20
0.0
 30
0.0
  3
*U84
  1

  0
TEXT
  5
19DD
  8
0
 10
3367.9274778643311947
 20
-2745.3188379368430105
 30
0.0
 40
17.0
  1
TOPZERO
  0
TEXT
  5
19DE
  8
0
 10
3367.9274778643311947
 20
-2773.6521712701769502
 30
0.0
 40
17.0
  1
www.topzero.com
  0
ENDBLK
  5
19E0
  8
0
  0
BLOCK
  8
0
  2
*U85
 70
     1
 10
0.0
 20
0.0
 30
0.0
  3
*U85
  1

  0
TEXT
  5
19E2
  8
0
 10
3893.3482652929760661
 20
-2732.7346926648351655
 30
0.0
 40
18.0
  1
30'' 1-3/4 BOWL
  0
ENDBLK
  5
19E4
  8
0
  0
BLOCK
  8
0
  2
*U86
 70
     1
 10
0.0
 20
0.0
 30
0.0
  3
*U86
  1

  0
TEXT
  5
19E6
  8
0
 10
3710.4830431024088284
 20
-2840.2401572130320346
 30
0.0
 40
15.0
  1
Stainless
  0
TEXT
  5
19E7
  8
0
 10
3710.4830431024088284
 20
-2865.2401572130320346
 30
0.0
 40
15.0
  1
steel
  0
ENDBLK
  5
19E9
  8
0
  0
BLOCK
  8
0
  2
*U87
 70
     1
 10
0.0
 20
0.0
 30
0.0
  3
*U87
  1

  0
TEXT
  5
19EB
  8
0
 10
4035.556449644616805
 20
-2869.1915591475958536
 30
0.0
 40
21.9959999999999987
  1
TZ L375.64
  0
ENDBLK
  5
19ED
  8
0
  0
BLOCK
  8
0
  2
*U88
 70
     1
 10
0.0
 20
0.0
 30
0.0
  3
*U88
  1

  0
TEXT
  5
19EF
  8
0
 10
4587.0289792264939024
 20
-2855.9355218484129182
 30
0.0
 40
20.0
  1
10/2020
  0
ENDBLK
  5
19F1
  8
0
  0
BLOCK
  8
0
  2
*U89
 70
     1
 10
0.0
 20
0.0
 30
0.0
  3
*U89
  1

  0
TEXT
  5
19F3
  8
0
 10
4742.06996276440168
 20
-1723.8989374201300961
 30
0.0
 40
20.0
  1
mm
  0
TEXT
  5
19F4
  8
0
 10
4715.4032960977356197
 20
-1757.2322707534628989
 30
0.0
 40
20.0
  1
[
  0
TEXT
  5
19F5
  8
0
 10
4728.7366294310650119
 20
-1757.2322707534628989
 30
0.0
 40
20.0
  1
inch
  0
TEXT
  5
19F6
  8
0
 10
4795.4032960977356197
 20
-1757.2322707534628989
 30
0.0
 40
20.0
  1
]
  0
ENDBLK
  5
19F8
  8
0
  0
BLOCK
  8
0
  2
*U90
 70
     1
 10
0.0
 20
0.0
 30
0.0
  3
*U90
  1

  0
TEXT
  5
19FA
  8
0
 10
4478.479430670153306
 20
-2677.4809758120918559
 30
0.0
 40
12.0
  1
This template file is meant to be a guideline
  0
TEXT
  5
19FB
  8
0
 10
4478.479430670153306
 20
-2697.4809758120918559
 30
0.0
 40
12.0
  1
and must be compared with the actual product
  0
TEXT
  5
19FC
  8
0
 10
4478.479430670153306
 20
-2717.4809758120918559
 30
0.0
 40
12.0
  1
which should always be present to ensure a
  0
TEXT
  5
19FD
  8
0
 10
4478.479430670153306
 20
-2737.4809758120918559
 30
0.0
 40
12.0
  1
perfect cut.Testing on a scrap piece before
  0
TEXT
  5
19FE
  8
0
 10
4478.479430670153306
 20
-2757.4809758120932202
 30
0.0
 40
12.0
  1
the final cut is always recommended.
  0
TEXT
  5
19FF
  8
0
 10
4478.479430670153306
 20
-2777.4809758120932202
 30
0.0
 40
12.0
  1
UKINOX IS NOT RESPONSIBLE FOR ANY IMPROPERLY
  0
TEXT
  5
1A00
  8
0
 10
4478.479430670153306
 20
-2797.4809758120932202
 30
0.0
 40
12.0
  1
CUT COUNTERTOP OR AN IMPROPER INSTALLATION.
  0
ENDBLK
  5
1A02
  8
0
  0
BLOCK
  8
0
  2
*U91
 70
     1
 10
0.0
 20
0.0
 30
0.0
  3
*U91
  1

  0
TEXT
  5
1ABC
  8
0
 62
     1
 10
4506.1328558174473073
 20
-2199.9302645517809651
 30
0.0
 40
15.0
  1
Topzero zero reveal
  0
ENDBLK
  5
1ABE
  8
0
  0
BLOCK
  8
0
  2
*U92
 70
     1
 10
0.0
 20
0.0
 30
0.0
  3
*U92
  1

  0
TEXT
  5
219C
  8
0
 62
     0
 10
1652.155925265670021
 20
-397.6125945055375155
 30
0.0
 40
15.0
  1
612.6mm
  0
ENDBLK
  5
219E
  8
0
  0
BLOCK
  8
0
  2
*D93
 70
     1
 10
0.0
 20
0.0
 30
0.0
  3
*D93
  1

  0
LINE
  5
1E78
  8
0
 62
     1
 10
1413.8326750194430588
 20
899.0646214739772404
 30
0.0
 11
1404.2999814328679804
 21
887.4832677972912052
 31
0.0
  0
INSERT
  5
1E79
  8
0
  2
*U94
 10
0.0
 20
0.0
 30
0.0
  0
LINE
  5
1E7A
  8
0
 62
     1
 10
1430.6737670223910754
 20
919.525012969455247
 30
0.0
 11
1423.3653686060170003
 21
910.6459751506630482
 31
0.0
  0
SOLID
  5
1E7B
  8
0
 62
     1
 10
1411.9024494066600255
 20
900.6534037384060412
 30
0.0
 11
1415.7629006322229088
 21
897.4758392095482122
 31
0.0
 12
1423.3653686060170003
 22
910.6459751506630482
 32
0.0
 13
1423.3653686060170003
 23
910.6459751506630482
 33
0.0
  0
POINT
  5
1E7C
  8
DEFPOINTS
 62
     0
 10
1423.3653686060170003
 20
910.6459751506630482
 30
0.0
  0
POINT
  5
1E7D
  8
DEFPOINTS
 62
     0
 10
1430.6737670223910754
 20
919.525012969455247
 30
0.0
  0
ENDBLK
  5
1E4D
  8
0
  0
BLOCK
  8
0
  2
*U94
 70
     1
 10
0.0
 20
0.0
 30
0.0
  3
*U94
  1

  0
TEXT
  5
21A8
  8
0
 62
     1
 10
1369.2010316462060473
 20
833.0397522844782543
 30
0.0
 40
15.0
  1
R11.5
 50
50.5419638825165265
  0
ENDBLK
  5
21AA
  8
0
  0
BLOCK
  8
0
  2
*U95
 70
     1
 10
0.0
 20
0.0
 30
0.0
  3
*U95
  1

  0
TEXT
  5
21A4
  8
0
 62
     0
 10
1386.1520094569189041
 20
1100.7067409531009616
 30
0.0
 40
15.0
  1
408
 50
90.0
  0
ENDBLK
  5
21A6
  8
0
  0
BLOCK
  8
0
  2
*U96
 70
     1
 10
0.0
 20
0.0
 30
0.0
  3
*U96
  1

  0
TEXT
  5
21A0
  8
0
 62
     0
 10
1788.8054950060359261
 20
1346.1759827256380504
 30
0.0
 40
15.0
  1
764
  0
ENDBLK
  5
21A2
  8
0
  0
BLOCK
  8
0
  2
*D97
 70
     1
 10
0.0
 20
0.0
 30
0.0
  3
*D97
  1

  0
LINE
  5
1EC4
  8
0
 62
     1
 10
3431.4560131565290249
 20
822.4680821567718567
 30
0.0
 11
3421.3443944479831771
 21
811.3885890685038476
 31
0.0
  0
INSERT
  5
1EC5
  8
0
  2
*U98
 10
0.0
 20
0.0
 30
0.0
  0
LINE
  5
1EC6
  8
0
 62
     1
 10
3449.3198728749612201
 20
842.0418532793776194
 30
0.0
 11
3441.5676318650757821
 21
833.5475752450395248
 31
0.0
  0
SOLID
  5
1EC7
  8
0
 62
     1
 10
3429.6094309751529181
 20
824.1533519415296496
 30
0.0
 11
3433.3025953379078601
 21
820.7828123720141775
 31
0.0
 12
3441.5676318650757821
 22
833.5475752450395248
 32
0.0
 13
3441.5676318650757821
 23
833.5475752450395248
 33
0.0
  0
POINT
  5
1EC8
  8
DEFPOINTS
 62
     0
 10
3441.5676318650757821
 20
833.5475752450395248
 30
0.0
  0
POINT
  5
1EC9
  8
DEFPOINTS
 62
     0
 10
3449.3198728749612201
 20
842.0418532793776194
 30
0.0
  0
ENDBLK
  5
1E9C
  8
0
  0
BLOCK
  8
0
  2
*U98
 70
     1
 10
0.0
 20
0.0
 30
0.0
  3
*U98
  1

  0
TEXT
  5
21B4
  8
0
 62
     1
 10
3372.1742100850851784
 20
746.3860670447851362
 30
0.0
 40
15.0
  1
R11.5
 50
47.6150871436955612
  0
ENDBLK
  5
21B6
  8
0
  0
BLOCK
  8
0
  2
*U99
 70
     1
 10
0.0
 20
0.0
 30
0.0
  3
*U99
  1

  0
TEXT
  5
21B0
  8
0
 62
     0
 10
3395.5145964110911336
 20
1035.1735812630240616
 30
0.0
 40
15.0
  1
433
 50
90.0
  0
ENDBLK
  5
21B2
  8
0
  0
BLOCK
  8
0
  2
*U100
 70
     1
 10
0.0
 20
0.0
 30
0.0
  3
*U100
  1

  0
TEXT
  5
21AC
  8
0
 62
     0
 10
3807.4516008586078897
 20
1334.9201902567990601
 30
0.0
 40
15.0
  1
763
  0
ENDBLK
  5
21AE
  8
0
  0
BLOCK
  8
0
  2
*U101
 70
     1
 10
0.0
 20
0.0
 30
0.0
  3
*U101
  1

  0
TEXT
  5
21B8
  8
0
 62
     0
 10
1678.8559252656709759
 20
-157.1348147411717946
 30
0.0
 40
15.0
  1
611
  0
ENDBLK
  5
21BA
  8
0
  0
BLOCK
  8
0
  2
*U102
 70
     1
 10
0.0
 20
0.0
 30
0.0
  3
*U102
  1

  0
TEXT
  5
21BC
  8
0
 62
     0
 10
1340.5398741560579765
 20
-425.1625945055369016
 30
0.0
 40
15.0
  1
407
 50
90.0
  0
ENDBLK
  5
21BE
  8
0
  0
BLOCK
  8
0
  2
*U103
 70
     1
 10
0.0
 20
0.0
 30
0.0
  3
*U103
  1

  0
TEXT
  5
21C0
  8
0
 62
     0
 10
1309.790407087542917
 20
-694.3291444274864261
 30
0.0
 40
15.0
  1
R11.5
 50
63.8111980066912494
  0
ENDBLK
  5
21C2
  8
0
  0
BLOCK
  8
0
  2
*U104
 70
     1
 10
0.0
 20
0.0
 30
0.0
  3
*U104
  1

  0
TEXT
  5
21C4
  8
0
 62
     0
 10
3923.8441518291501779
 20
-157.1595801081174955
 30
0.0
 40
15.0
  1
791
  0
ENDBLK
  5
21C6
  8
0
  0
BLOCK
  8
0
  2
*U105
 70
     1
 10
0.0
 20
0.0
 30
0.0
  3
*U105
  1

  0
TEXT
  5
21C8
  8
0
 62
     0
 10
3502.0321730127448063
 20
-441.74838597883479
 30
0.0
 40
15.0
  1
408
 50
90.0
  0
ENDBLK
  5
21CA
  8
0
  0
BLOCK
  8
0
  2
*U106
 70
     1
 10
0.0
 20
0.0
 30
0.0
  3
*U106
  1

  0
TEXT
  5
21CC
  8
0
 62
     0
 10
3474.9141056894241046
 20
-702.4044417745268447
 30
0.0
 40
15.0
  1
R11.5
 50
41.171817944847767
  0
ENDBLK
  5
21CE
  8
0
  0
BLOCK
  8
0
  2
*U107
 70
     1
 10
0.0
 20
0.0
 30
0.0
  3
*U107
  1

  0
TEXT
  5
21D0
  8
0
 62
     0
 10
1845.0740405260469288
 20
-1756.4281172449359474
 30
0.0
 40
15.0
  1
770
  0
ENDBLK
  5
21D2
  8
0
  0
BLOCK
  8
0
  2
*U108
 70
     1
 10
0.0
 20
0.0
 30
0.0
  3
*U108
  1

  0
TEXT
  5
21D4
  8
0
 62
     0
 10
1843.8240405260480657
 20
-1810.2196501409689517
 30
0.0
 40
15.0
  1
767
  0
ENDBLK
  5
21D6
  8
0
  0
BLOCK
  8
0
  2
*U109
 70
     1
 10
0.0
 20
0.0
 30
0.0
  3
*U109
  1

  0
TEXT
  5
21D8
  8
0
 62
     0
 10
1352.7418738076739828
 20
-2077.8185320968000269
 30
0.0
 40
15.0
  1
427
 50
90.0
  0
ENDBLK
  5
21DA
  8
0
  0
BLOCK
  8
0
  2
*U110
 70
     1
 10
0.0
 20
0.0
 30
0.0
  3
*U110
  1

  0
TEXT
  5
21DC
  8
0
 62
     0
 10
1420.8915712680900469
 20
-2077.8185320968000269
 30
0.0
 40
15.0
  1
424
 50
90.0
  0
ENDBLK
  5
21DE
  8
0
  0
BLOCK
  8
0
  2
*U111
 70
     1
 10
0.0
 20
0.0
 30
0.0
  3
*U111
  1

  0
TEXT
  5
21E0
  8
0
 62
     0
 10
1405.3117736943061118
 20
-2339.8239519398848643
 30
0.0
 40
15.0
  1
R11.5
 50
36.6215009284125301
  0
ENDBLK
  5
21E2
  8
0
  0
BLOCK
  8
0
  2
*U112
 70
     1
 10
0.0
 20
0.0
 30
0.0
  3
*U112
  1

  0
TEXT
  5
21E4
  8
0
 62
     0
 10
3964.5704434502367803
 20
-1829.5941961996429654
 30
0.0
 40
15.0
  1
R91.5
 50
17.4771522699850905
  0
ENDBLK
  5
21E6
  8
0
  0
BLOCK
  8
0
  2
*U113
 70
     1
 10
0.0
 20
0.0
 30
0.0
  3
*U113
  1

  0
TEXT
  5
21F2
  8
0
 62
     0
 10
4453.8419606256638872
 20
-2139.3492961749998358
 30
0.0
 40
15.0
  1
412.57
 50
90.0
  0
ENDBLK
  5
21F4
  8
0
  0
BLOCK
  8
0
  2
*U114
 70
     1
 10
0.0
 20
0.0
 30
0.0
  3
*U114
  1

  0
TEXT
  5
21FA
  8
0
 62
     0
 10
4384.0898706242069238
 20
-2154.0670380481028587
 30
0.0
 40
15.0
  1
413.9998
 50
90.0
  0
ENDBLK
  5
21FC
  8
0
  0
BLOCK
  8
0
  2
*U115
 70
     1
 10
0.0
 20
0.0
 30
0.0
  3
*U115
  1

  0
TEXT
  5
21F6
  8
0
 62
     0
 10
3920.8101558589478373
 20
-1768.9530640084039987
 30
0.0
 40
15.0
  1
761.189
  0
ENDBLK
  5
21F8
  8
0
  0
BLOCK
  8
0
  2
*U116
 70
     1
 10
0.0
 20
0.0
 30
0.0
  3
*U116
  1

  0
TEXT
  5
220C
  8
0
 62
     0
 10
3440.922852863468961
 20
-2357.5889365898988217
 30
0.0
 40
15.0
  1
R91.5
  0
ENDBLK
  5
220E
  8
0
  0
BLOCK
  8
0
  2
*U117
 70
     1
 10
0.0
 20
0.0
 30
0.0
  3
*U117
  1

  0
TEXT
  5
2210
  8
0
 62
     0
 10
3456.5013103384521855
 20
-2090.5645209450508446
 30
0.0
 40
15.0
  1
476
 50
90.0
  0
ENDBLK
  5
2212
  8
0
  0
BLOCK
  8
0
  2
*D118
 70
     1
 10
0.0
 20
0.0
 30
0.0
  3
*D118
  1

  0
LINE
  5
2507
  8
0
 62
     0
 10
3440.92285286347078
 20
-2367.5889365898988217
 30
0.0
 11
3505.9228528634698705
 21
-2367.5889365898979122
 31
0.0
  0
LINE
  5
2508
  8
0
 62
     0
 10
3505.9228528634698705
 20
-2367.5889365898979122
 30
0.0
 11
3530.6506016283688041
 21
-2350.6025172785771247
 31
0.0
  0
INSERT
  5
2509
  8
0
  2
*U119
 10
0.0
 20
0.0
 30
0.0
  0
LINE
  5
250A
  8
0
 62
     0
 10
3618.4341097437600183
 20
-2290.3007287233867828
 30
0.0
 11
3543.0144760108191804
 21
-2342.1093076229171857
 31
0.0
  0
SOLID
  5
250B
  8
0
 62
     0
 10
3529.2350666857591932
 20
-2348.5418715481691834
 30
0.0
 11
3532.0661365709811434
 21
-2352.6631630089859755
 31
0.0
 12
3543.0144760108191804
 22
-2342.1093076229171857
 32
0.0
 13
3543.0144760108191804
 23
-2342.1093076229171857
 33
0.0
  0
POINT
  5
250C
  8
DEFPOINTS
 62
     0
 10
3543.0144760108191804
 20
-2342.1093076229171857
 30
0.0
  0
POINT
  5
250D
  8
DEFPOINTS
 62
     0
 10
3618.4341097437600183
 20
-2290.3007287233867828
 30
0.0
  0
ENDBLK
  5
250F
  8
0
  0
BLOCK
  8
0
  2
*U119
 70
     1
 10
0.0
 20
0.0
 30
0.0
  3
*U119
  1

  0
TEXT
  5
2704
  8
0
 62
     1
 10
3440.92285286347078
 20
-2357.5889365898970027
 30
0.0
 40
15.0
  1
R91.5
  0
ENDBLK
  5
2706
  8
0
  0
BLOCK
  8
0
  2
*D120
 70
     1
 10
0.0
 20
0.0
 30
0.0
  3
*D120
  1

  0
LINE
  5
2511
  8
0
 62
     0
 10
3466.501310338453095
 20
-1847.5645115986098972
 30
0.0
 11
3466.501310338453095
 21
-2293.564530291491792
 31
0.0
  0
SOLID
  5
2512
  8
0
 62
     0
 10
3464.001310338453095
 20
-1847.5645115986098972
 30
0.0
 11
3469.0013103384521855
 21
-1847.5645115986098972
 31
0.0
 12
3466.501310338453095
 22
-1832.5645115986110341
 32
0.0
 13
3466.501310338453095
 23
-1832.5645115986110341
 33
0.0
  0
SOLID
  5
2513
  8
0
 62
     0
 10
3464.001310338453095
 20
-2293.564530291491792
 30
0.0
 11
3469.0013103384521855
 21
-2293.564530291491792
 31
0.0
 12
3466.501310338453095
 22
-2308.564530291491792
 32
0.0
 13
3466.501310338453095
 23
-2308.564530291491792
 33
0.0
  0
INSERT
  5
2514
  8
0
  2
*U121
 10
0.0
 20
0.0
 30
0.0
  0
POINT
  5
2515
  8
DEFPOINTS
 62
     0
 10
3767.8929035300047872
 20
-1832.5645115986110341
 30
0.0
  0
POINT
  5
2516
  8
DEFPOINTS
 62
     0
 10
3774.0514791924538258
 20
-2308.564530291491792
 30
0.0
  0
POINT
  5
2517
  8
DEFPOINTS
 62
     0
 10
3466.501310338453095
 20
-2308.564530291491792
 30
0.0
  0
ENDBLK
  5
2519
  8
0
  0
BLOCK
  8
0
  2
*U121
 70
     1
 10
0.0
 20
0.0
 30
0.0
  3
*U121
  1

  0
TEXT
  5
2708
  8
0
 62
     1
 10
3456.501310338453095
 20
-2090.5645209450508446
 30
0.0
 40
15.0
  1
476
 50
90.0
  0
ENDBLK
  5
270A
  8
0
  0
BLOCK
  8
0
  2
*D122
 70
     1
 10
0.0
 20
0.0
 30
0.0
  3
*D122
  1

  0
LINE
  5
251B
  8
0
 62
     0
 10
1495.3240405260480657
 20
-1820.2196501409689517
 30
0.0
 11
2232.3240405260480657
 21
-1820.2196501409689517
 31
0.0
  0
SOLID
  5
251C
  8
0
 62
     0
 10
1495.3240405260480657
 20
-1817.7196501409689517
 30
0.0
 11
1495.3240405260480657
 21
-1822.7196501409689517
 31
0.0
 12
1480.3240405260480657
 22
-1820.2196501409689517
 32
0.0
 13
1480.3240405260480657
 23
-1820.2196501409689517
 33
0.0
  0
SOLID
  5
251D
  8
0
 62
     0
 10
2232.3240405260480657
 20
-1817.7196501409689517
 30
0.0
 11
2232.3240405260480657
 21
-1822.7196501409689517
 31
0.0
 12
2247.3240405260480657
 22
-1820.2196501409689517
 32
0.0
 13
2247.3240405260480657
 23
-1820.2196501409689517
 33
0.0
  0
INSERT
  5
251E
  8
0
  2
*U123
 10
0.0
 20
0.0
 30
0.0
  0
POINT
  5
251F
  8
DEFPOINTS
 62
     0
 10
1480.3240405260480657
 20
-1857.3185320968000269
 30
0.0
  0
POINT
  5
2520
  8
DEFPOINTS
 62
     0
 10
2247.3240405260480657
 20
-1857.3185320968000269
 30
0.0
  0
POINT
  5
2521
  8
DEFPOINTS
 62
     0
 10
2247.3240405260480657
 20
-1820.2196501409689517
 30
0.0
  0
ENDBLK
  5
2523
  8
0
  0
BLOCK
  8
0
  2
*U123
 70
     1
 10
0.0
 20
0.0
 30
0.0
  3
*U123
  1

  0
TEXT
  5
270C
  8
0
 62
     1
 10
1843.8240405260480657
 20
-1810.2196501409689517
 30
0.0
 40
15.0
  1
767
  0
ENDBLK
  5
270E
  8
0
  0
BLOCK
  8
0
  2
*D124
 70
     1
 10
0.0
 20
0.0
 30
0.0
  3
*D124
  1

  0
LINE
  5
2525
  8
0
 62
     0
 10
1430.8915712680900469
 20
-1860.8185320968000269
 30
0.0
 11
1430.8915712680900469
 21
-2254.8185320968000269
 31
0.0
  0
SOLID
  5
2526
  8
0
 62
     0
 10
1428.3915712680900469
 20
-1860.8185320968000269
 30
0.0
 11
1433.3915712680900469
 21
-1860.8185320968000269
 31
0.0
 12
1430.8915712680900469
 22
-1845.8185320968000269
 32
0.0
 13
1430.8915712680900469
 23
-1845.8185320968000269
 33
0.0
  0
SOLID
  5
2527
  8
0
 62
     0
 10
1428.3915712680900469
 20
-2254.8185320968000269
 30
0.0
 11
1433.3915712680900469
 21
-2254.8185320968000269
 31
0.0
 12
1430.8915712680900469
 22
-2269.8185320968000269
 32
0.0
 13
1430.8915712680900469
 23
-2269.8185320968000269
 33
0.0
  0
INSERT
  5
2528
  8
0
  2
*U125
 10
0.0
 20
0.0
 30
0.0
  0
POINT
  5
2529
  8
DEFPOINTS
 62
     0
 10
1491.8240405260460193
 20
-1845.8185320968000269
 30
0.0
  0
POINT
  5
252A
  8
DEFPOINTS
 62
     0
 10
1491.8240405260460193
 20
-2269.8185320968000269
 30
0.0
  0
POINT
  5
252B
  8
DEFPOINTS
 62
     0
 10
1430.8915712680900469
 20
-2269.8185320968000269
 30
0.0
  0
ENDBLK
  5
252D
  8
0
  0
BLOCK
  8
0
  2
*U125
 70
     1
 10
0.0
 20
0.0
 30
0.0
  3
*U125
  1

  0
TEXT
  5
2710
  8
0
 62
     1
 10
1420.8915712680900469
 20
-2077.8185320968000269
 30
0.0
 40
15.0
  1
424
 50
90.0
  0
ENDBLK
  5
2712
  8
0
  0
BLOCK
  8
0
  2
*D126
 70
     1
 10
0.0
 20
0.0
 30
0.0
  3
*D126
  1

  0
LINE
  5
252F
  8
0
 62
     0
 10
1466.6018226470400805
 20
-2284.9255456072551169
 30
0.0
 11
1454.562917475022914
 21
-2293.8734371052091774
 31
0.0
  0
INSERT
  5
2530
  8
0
  2
*U127
 10
0.0
 20
0.0
 30
0.0
  0
LINE
  5
2531
  8
0
 62
     0
 10
1487.8705551176069548
 20
-2269.1176039608649262
 30
0.0
 11
1478.6407278190579291
 21
-2275.9776541092987827
 31
0.0
  0
SOLID
  5
2532
  8
0
 62
     0
 10
1465.1105073973810704
 20
-2282.9190614119170277
 30
0.0
 11
1468.0931378967000001
 21
-2286.9320298025900229
 31
0.0
 12
1478.6407278190579291
 22
-2275.9776541092987827
 32
0.0
 13
1478.6407278190579291
 23
-2275.9776541092987827
 33
0.0
  0
POINT
  5
2533
  8
DEFPOINTS
 62
     0
 10
1478.6407278190579291
 20
-2275.9776541092987827
 30
0.0
  0
POINT
  5
2534
  8
DEFPOINTS
 62
     0
 10
1487.8705551176069548
 20
-2269.1176039608649262
 30
0.0
  0
ENDBLK
  5
2536
  8
0
  0
BLOCK
  8
0
  2
*U127
 70
     1
 10
0.0
 20
0.0
 30
0.0
  3
*U127
  1

  0
TEXT
  5
2714
  8
0
 62
     1
 10
1405.3117736943070213
 20
-2339.8239519398848643
 30
0.0
 40
15.0
  1
R11.5
 50
36.6215009284130133
  0
ENDBLK
  5
2716
  8
0
  0
BLOCK
  8
0
  2
*D128
 70
     1
 10
0.0
 20
0.0
 30
0.0
  3
*D128
  1

  0
LINE
  5
2538
  8
0
 62
     0
 10
1403.3559252656709759
 20
-167.1348147411717946
 30
0.0
 11
1984.3559252656709759
 21
-167.1348147411717946
 31
0.0
  0
SOLID
  5
2539
  8
0
 62
     0
 10
1403.3559252656709759
 20
-164.6348147411717946
 30
0.0
 11
1403.3559252656709759
 21
-169.6348147411717946
 31
0.0
 12
1388.3559252656709759
 22
-167.1348147411717946
 32
0.0
 13
1388.3559252656709759
 23
-167.1348147411717946
 33
0.0
  0
SOLID
  5
253A
  8
0
 62
     0
 10
1984.3559252656709759
 20
-164.6348147411717946
 30
0.0
 11
1984.3559252656709759
 21
-169.6348147411717946
 31
0.0
 12
1999.3559252656709759
 22
-167.1348147411717946
 32
0.0
 13
1999.3559252656709759
 23
-167.1348147411717946
 33
0.0
  0
INSERT
  5
253B
  8
0
  2
*U129
 10
0.0
 20
0.0
 30
0.0
  0
POINT
  5
253C
  8
DEFPOINTS
 62
     0
 10
1388.3559252656709759
 20
-214.4125945055374984
 30
0.0
  0
POINT
  5
253D
  8
DEFPOINTS
 62
     0
 10
1999.3559252656709759
 20
-214.4125945055374984
 30
0.0
  0
POINT
  5
253E
  8
DEFPOINTS
 62
     0
 10
1999.3559252656709759
 20
-167.1348147411717946
 30
0.0
  0
ENDBLK
  5
2540
  8
0
  0
BLOCK
  8
0
  2
*U129
 70
     1
 10
0.0
 20
0.0
 30
0.0
  3
*U129
  1

  0
TEXT
  5
2718
  8
0
 62
     1
 10
1678.8559252656709759
 20
-157.1348147411717946
 30
0.0
 40
15.0
  1
611
  0
ENDBLK
  5
271A
  8
0
  0
BLOCK
  8
0
  2
*D130
 70
     1
 10
0.0
 20
0.0
 30
0.0
  3
*D130
  1

  0
LINE
  5
2542
  8
0
 62
     0
 10
1350.5398741560579765
 20
-217.9125945055374984
 30
0.0
 11
1350.5398741560579765
 21
-594.9125945055375269
 31
0.0
  0
SOLID
  5
2543
  8
0
 62
     0
 10
1348.0398741560579765
 20
-217.9125945055374984
 30
0.0
 11
1353.0398741560579765
 21
-217.9125945055374984
 31
0.0
 12
1350.5398741560579765
 22
-202.9125945055374984
 32
0.0
 13
1350.5398741560579765
 23
-202.9125945055374984
 33
0.0
  0
SOLID
  5
2544
  8
0
 62
     0
 10
1348.0398741560579765
 20
-594.9125945055375269
 30
0.0
 11
1353.0398741560579765
 21
-594.9125945055375269
 31
0.0
 12
1350.5398741560579765
 22
-609.9125945055375269
 32
0.0
 13
1350.5398741560579765
 23
-609.9125945055375269
 33
0.0
  0
INSERT
  5
2545
  8
0
  2
*U131
 10
0.0
 20
0.0
 30
0.0
  0
POINT
  5
2546
  8
DEFPOINTS
 62
     0
 10
1399.8559252656709759
 20
-202.9125945055374984
 30
0.0
  0
POINT
  5
2547
  8
DEFPOINTS
 62
     0
 10
1399.8559252656700664
 20
-609.9125945055375269
 30
0.0
  0
POINT
  5
2548
  8
DEFPOINTS
 62
     0
 10
1350.5398741560579765
 20
-609.9125945055375269
 30
0.0
  0
ENDBLK
  5
254A
  8
0
  0
BLOCK
  8
0
  2
*U131
 70
     1
 10
0.0
 20
0.0
 30
0.0
  3
*U131
  1

  0
TEXT
  5
271C
  8
0
 62
     1
 10
1340.5398741560579765
 20
-425.1625945055370153
 30
0.0
 40
15.0
  1
407
 50
90.0
  0
ENDBLK
  5
271E
  8
0
  0
BLOCK
  8
0
  2
*D132
 70
     1
 10
0.0
 20
0.0
 30
0.0
  3
*D132
  1

  0
LINE
  5
254C
  8
0
 62
     0
 10
1388.1606674843810652
 20
-622.1922275016366939
 30
0.0
 11
1381.5407102496890275
 21
-635.6523971220708518
 31
0.0
  0
INSERT
  5
254D
  8
0
  2
*U133
 10
0.0
 20
0.0
 30
0.0
  0
LINE
  5
254E
  8
0
 62
     0
 10
1399.8559252656680201
 20
-598.4125945055374132
 30
0.0
 11
1394.780624719071966
 21
-608.7320578812024223
 31
0.0
  0
SOLID
  5
254F
  8
0
 62
     0
 10
1385.9173058809749364
 20
-621.0889012958548392
 30
0.0
 11
1390.4040290877860571
 21
-623.2955537074185486
 31
0.0
 12
1394.780624719071966
 22
-608.7320578812024223
 32
0.0
 13
1394.780624719071966
 23
-608.7320578812024223
 33
0.0
  0
POINT
  5
2550
  8
DEFPOINTS
 62
     0
 10
1394.780624719071966
 20
-608.7320578812024223
 30
0.0
  0
POINT
  5
2551
  8
DEFPOINTS
 62
     0
 10
1399.8559252656680201
 20
-598.4125945055374132
 30
0.0
  0
ENDBLK
  5
2553
  8
0
  0
BLOCK
  8
0
  2
*U133
 70
     1
 10
0.0
 20
0.0
 30
0.0
  3
*U133
  1

  0
TEXT
  5
2720
  8
0
 62
     1
 10
1309.7904070875449634
 20
-694.3291444274865398
 30
0.0
 40
15.0
  1
R11.5
 50
63.8111980066945392
  0
ENDBLK
  5
2722
  8
0
  0
BLOCK
  8
0
  2
*D134
 70
     1
 10
0.0
 20
0.0
 30
0.0
  3
*D134
  1

  0
LINE
  5
2555
  8
0
 62
     0
 10
1442.3054950060359261
 20
1353.6759827256380504
 30
0.0
 11
1778.8054950060359261
 21
1353.6759827256380504
 31
0.0
  0
LINE
  5
2556
  8
0
 62
     0
 10
2176.3054950060359261
 20
1353.6759827256380504
 30
0.0
 11
1838.8054950060359261
 21
1353.6759827256380504
 31
0.0
  0
INSERT
  5
2557
  8
0
  2
*U135
 10
0.0
 20
0.0
 30
0.0
  0
SOLID
  5
2558
  8
0
 62
     0
 10
1442.3054950060359261
 20
1356.1759827256380504
 30
0.0
 11
1442.3054950060359261
 21
1351.1759827256380504
 31
0.0
 12
1427.3054950060359261
 22
1353.6759827256380504
 32
0.0
 13
1427.3054950060359261
 23
1353.6759827256380504
 33
0.0
  0
SOLID
  5
2559
  8
0
 62
     0
 10
2176.3054950060359261
 20
1356.1759827256380504
 30
0.0
 11
2176.3054950060359261
 21
1351.1759827256380504
 31
0.0
 12
2191.3054950060359261
 22
1353.6759827256380504
 32
0.0
 13
2191.3054950060359261
 23
1353.6759827256380504
 33
0.0
  0
POINT
  5
255A
  8
DEFPOINTS
 62
     0
 10
1427.3054950060359261
 20
1312.6567409531000976
 30
0.0
  0
POINT
  5
255B
  8
DEFPOINTS
 62
     0
 10
2191.3054950060359261
 20
1312.6567409531010071
 30
0.0
  0
POINT
  5
255C
  8
DEFPOINTS
 62
     0
 10
2191.3054950060359261
 20
1353.6759827256380504
 30
0.0
  0
ENDBLK
  5
255E
  8
0
  0
BLOCK
  8
0
  2
*U135
 70
     1
 10
0.0
 20
0.0
 30
0.0
  3
*U135
  1

  0
TEXT
  5
2724
  8
0
 62
     1
 10
1788.8054950060359261
 20
1346.1759827256380504
 30
0.0
 40
15.0
  1
764
  0
ENDBLK
  5
2726
  8
0
  0
BLOCK
  8
0
  2
*D136
 70
     1
 10
0.0
 20
0.0
 30
0.0
  3
*D136
  1

  0
LINE
  5
2560
  8
0
 62
     0
 10
1378.6520094569189041
 20
1309.1567409531000976
 30
0.0
 11
1378.6520094569189041
 21
1148.2067409531000521
 31
0.0
  0
LINE
  5
2561
  8
0
 62
     0
 10
1378.6520094569189041
 20
931.1567409531004387
 30
0.0
 11
1378.6520094569189041
 21
1090.7067409531009616
 31
0.0
  0
INSERT
  5
2562
  8
0
  2
*U137
 10
0.0
 20
0.0
 30
0.0
  0
SOLID
  5
2563
  8
0
 62
     0
 10
1376.1520094569189041
 20
1309.1567409531000976
 30
0.0
 11
1381.1520094569189041
 21
1309.1567409531000976
 31
0.0
 12
1378.6520094569189041
 22
1324.1567409531000976
 32
0.0
 13
1378.6520094569189041
 23
1324.1567409531000976
 33
0.0
  0
SOLID
  5
2564
  8
0
 62
     0
 10
1376.1520094569189041
 20
931.1567409531004387
 30
0.0
 11
1381.1520094569189041
 21
931.1567409531004387
 31
0.0
 12
1378.6520094569189041
 22
916.1567409531004387
 32
0.0
 13
1378.6520094569189041
 23
916.1567409531004387
 33
0.0
  0
POINT
  5
2565
  8
DEFPOINTS
 62
     0
 10
1438.8054950060359261
 20
1324.1567409531000976
 30
0.0
  0
POINT
  5
2566
  8
DEFPOINTS
 62
     0
 10
1438.8054950060359261
 20
916.1567409531004387
 30
0.0
  0
POINT
  5
2567
  8
DEFPOINTS
 62
     0
 10
1378.6520094569189041
 20
916.1567409531004387
 30
0.0
  0
ENDBLK
  5
2569
  8
0
  0
BLOCK
  8
0
  2
*U137
 70
     1
 10
0.0
 20
0.0
 30
0.0
  3
*U137
  1

  0
TEXT
  5
2728
  8
0
 62
     1
 10
1386.1520094569189041
 20
1100.7067409531009616
 30
0.0
 40
15.0
  1
408
 50
90.0
  0
ENDBLK
  5
272A
  8
0
  0
BLOCK
  8
0
  2
*D138
 70
     1
 10
0.0
 20
0.0
 30
0.0
  3
*D138
  1

  0
LINE
  5
256B
  8
0
 62
     0
 10
3405.5145964110911336
 20
1256.6735812630240616
 30
0.0
 11
3405.5145964110911336
 21
853.6735812630238343
 31
0.0
  0
SOLID
  5
256C
  8
0
 62
     0
 10
3403.0145964110920431
 20
1256.6735812630240616
 30
0.0
 11
3408.0145964110911336
 21
1256.6735812630240616
 31
0.0
 12
3405.5145964110911336
 22
1271.6735812630240616
 32
0.0
 13
3405.5145964110911336
 23
1271.6735812630240616
 33
0.0
  0
SOLID
  5
256D
  8
0
 62
     0
 10
3403.0145964110911336
 20
853.6735812630238343
 30
0.0
 11
3408.0145964110911336
 21
853.6735812630238343
 31
0.0
 12
3405.5145964110911336
 22
838.6735812630238343
 32
0.0
 13
3405.5145964110911336
 23
838.6735812630238343
 33
0.0
  0
INSERT
  5
256E
  8
0
  2
*U139
 10
0.0
 20
0.0
 30
0.0
  0
POINT
  5
256F
  8
DEFPOINTS
 62
     0
 10
3457.4516008586078897
 20
1271.6735812630240616
 30
0.0
  0
POINT
  5
2570
  8
DEFPOINTS
 62
     0
 10
3457.4516008586060707
 20
838.6735812630238343
 30
0.0
  0
POINT
  5
2571
  8
DEFPOINTS
 62
     0
 10
3405.5145964110911336
 20
838.6735812630238343
 30
0.0
  0
ENDBLK
  5
2573
  8
0
  0
BLOCK
  8
0
  2
*U139
 70
     1
 10
0.0
 20
0.0
 30
0.0
  3
*U139
  1

  0
TEXT
  5
272C
  8
0
 62
     1
 10
3395.5145964110911336
 20
1035.1735812630240616
 30
0.0
 40
15.0
  1
433
 50
90.0
  0
ENDBLK
  5
272E
  8
0
  0
BLOCK
  8
0
  2
*D140
 70
     1
 10
0.0
 20
0.0
 30
0.0
  3
*D140
  1

  0
LINE
  5
2575
  8
0
 62
     0
 10
3460.9516008586069802
 20
1324.9201902567990601
 30
0.0
 11
4193.9516008586060707
 21
1324.9201902567990601
 31
0.0
  0
SOLID
  5
2576
  8
0
 62
     0
 10
3460.9516008586069802
 20
1327.4201902567990601
 30
0.0
 11
3460.9516008586069802
 21
1322.4201902567990601
 31
0.0
 12
3445.9516008586069802
 22
1324.9201902567990601
 32
0.0
 13
3445.9516008586069802
 23
1324.9201902567990601
 33
0.0
  0
SOLID
  5
2577
  8
0
 62
     0
 10
4193.9516008586060707
 20
1327.4201902567990601
 30
0.0
 11
4193.9516008586060707
 21
1322.4201902567990601
 31
0.0
 12
4208.9516008586069802
 22
1324.9201902567990601
 32
0.0
 13
4208.9516008586069802
 23
1324.9201902567990601
 33
0.0
  0
INSERT
  5
2578
  8
0
  2
*U141
 10
0.0
 20
0.0
 30
0.0
  0
POINT
  5
2579
  8
DEFPOINTS
 62
     0
 10
3445.9516008586069802
 20
1260.1735812630240616
 30
0.0
  0
POINT
  5
257A
  8
DEFPOINTS
 62
     0
 10
4208.9516008586069802
 20
1260.1735812630240616
 30
0.0
  0
POINT
  5
257B
  8
DEFPOINTS
 62
     0
 10
4208.9516008586069802
 20
1324.9201902567990601
 30
0.0
  0
ENDBLK
  5
257D
  8
0
  0
BLOCK
  8
0
  2
*U141
 70
     1
 10
0.0
 20
0.0
 30
0.0
  3
*U141
  1

  0
TEXT
  5
2730
  8
0
 62
     1
 10
3807.4516008586078897
 20
1334.9201902567990601
 30
0.0
 40
15.0
  1
763
  0
ENDBLK
  5
2732
  8
0
  0
BLOCK
  8
0
  2
*D142
 70
     1
 10
0.0
 20
0.0
 30
0.0
  3
*D142
  1

  0
LINE
  5
257F
  8
0
 62
     0
 10
3560.8441518291501779
 20
-167.1595801081174955
 30
0.0
 11
4321.8441518291492685
 21
-167.1595801081174955
 31
0.0
  0
SOLID
  5
2580
  8
0
 62
     0
 10
3560.8441518291501779
 20
-164.6595801081174955
 30
0.0
 11
3560.8441518291501779
 21
-169.6595801081174955
 31
0.0
 12
3545.8441518291501779
 22
-167.1595801081174955
 32
0.0
 13
3545.8441518291501779
 23
-167.1595801081174955
 33
0.0
  0
SOLID
  5
2581
  8
0
 62
     0
 10
4321.8441518291492685
 20
-164.6595801081174955
 30
0.0
 11
4321.8441518291492685
 21
-169.6595801081174955
 31
0.0
 12
4336.8441518291492685
 22
-167.1595801081174955
 32
0.0
 13
4336.8441518291492685
 23
-167.1595801081174955
 33
0.0
  0
INSERT
  5
2582
  8
0
  2
*U143
 10
0.0
 20
0.0
 30
0.0
  0
POINT
  5
2583
  8
DEFPOINTS
 62
     0
 10
3545.8441518291501779
 20
-229.7983859788355119
 30
0.0
  0
POINT
  5
2584
  8
DEFPOINTS
 62
     0
 10
4336.8441518291492685
 20
-229.7983859788355119
 30
0.0
  0
POINT
  5
2585
  8
DEFPOINTS
 62
     0
 10
4336.8441518291492685
 20
-167.1595801081174955
 30
0.0
  0
ENDBLK
  5
2587
  8
0
  0
BLOCK
  8
0
  2
*U143
 70
     1
 10
0.0
 20
0.0
 30
0.0
  3
*U143
  1

  0
TEXT
  5
2734
  8
0
 62
     1
 10
3923.8441518291501779
 20
-157.1595801081174955
 30
0.0
 40
15.0
  1
791
  0
ENDBLK
  5
2736
  8
0
  0
BLOCK
  8
0
  2
*D144
 70
     1
 10
0.0
 20
0.0
 30
0.0
  3
*D144
  1

  0
LINE
  5
2589
  8
0
 62
     0
 10
3494.5321730127448063
 20
-233.2983859788355119
 30
0.0
 11
3494.5321730127448063
 21
-394.2483859788353016
 31
0.0
  0
LINE
  5
258A
  8
0
 62
     0
 10
3494.5321730127448063
 20
-611.2983859788351992
 30
0.0
 11
3494.5321730127448063
 21
-451.7483859788351879
 31
0.0
  0
INSERT
  5
258B
  8
0
  2
*U145
 10
0.0
 20
0.0
 30
0.0
  0
SOLID
  5
258C
  8
0
 62
     0
 10
3492.0321730127448063
 20
-233.2983859788355119
 30
0.0
 11
3497.0321730127448063
 21
-233.2983859788355119
 31
0.0
 12
3494.5321730127448063
 22
-218.2983859788355119
 32
0.0
 13
3494.5321730127448063
 23
-218.2983859788355119
 33
0.0
  0
SOLID
  5
258D
  8
0
 62
     0
 10
3492.0321730127448063
 20
-611.2983859788351992
 30
0.0
 11
3497.0321730127448063
 21
-611.2983859788351992
 31
0.0
 12
3494.5321730127448063
 22
-626.2983859788350856
 32
0.0
 13
3494.5321730127448063
 23
-626.2983859788350856
 33
0.0
  0
POINT
  5
258E
  8
DEFPOINTS
 62
     0
 10
3557.3441518291510874
 20
-218.2983859788355119
 30
0.0
  0
POINT
  5
258F
  8
DEFPOINTS
 62
     0
 10
3557.3441518291479042
 20
-626.2983859788350856
 30
0.0
  0
POINT
  5
2590
  8
DEFPOINTS
 62
     0
 10
3494.5321730127448063
 20
-626.2983859788350856
 30
0.0
  0
ENDBLK
  5
2592
  8
0
  0
BLOCK
  8
0
  2
*U145
 70
     1
 10
0.0
 20
0.0
 30
0.0
  3
*U145
  1

  0
TEXT
  5
2738
  8
0
 62
     1
 10
3502.0321730127448063
 20
-441.74838597883479
 30
0.0
 40
15.0
  1
408
 50
90.0
  0
ENDBLK
  5
273A
  8
0
  0
BLOCK
  8
0
  2
*D146
 70
     1
 10
0.0
 20
0.0
 30
0.0
  3
*D146
  1

  0
LINE
  5
2594
  8
0
 62
     0
 10
3532.0831603671190351
 20
-642.4427511124461034
 30
0.0
 11
3520.7920782588130351
 21
-652.3175404683515808
 31
0.0
  0
INSERT
  5
2595
  8
0
  2
*U147
 10
0.0
 20
0.0
 30
0.0
  0
LINE
  5
2596
  8
0
 62
     0
 10
3552.0307387584571188
 20
-624.9972899170137453
 30
0.0
 11
3543.3742424754250351
 21
-632.5679617565405124
 31
0.0
  0
SOLID
  5
2597
  8
0
 62
     0
 10
3530.4373621411341446
 20
-640.560904094395255
 30
0.0
 11
3533.728958593103016
 21
-644.3245981304969519
 31
0.0
 12
3543.3742424754250351
 22
-632.5679617565405124
 32
0.0
 13
3543.3742424754250351
 23
-632.5679617565405124
 33
0.0
  0
POINT
  5
2598
  8
DEFPOINTS
 62
     0
 10
3543.3742424754250351
 20
-632.5679617565405124
 30
0.0
  0
POINT
  5
2599
  8
DEFPOINTS
 62
     0
 10
3552.0307387584571188
 20
-624.9972899170137453
 30
0.0
  0
ENDBLK
  5
259B
  8
0
  0
BLOCK
  8
0
  2
*U147
 70
     1
 10
0.0
 20
0.0
 30
0.0
  3
*U147
  1

  0
TEXT
  5
273C
  8
0
 62
     1
 10
3474.9141056894268331
 20
-702.4044417745271858
 30
0.0
 40
15.0
  1
R11.5
 50
41.17181794485154
  0
ENDBLK
  5
273E
  8
0
  0
BLOCK
  8
0
  2
A$C2BB81DB5
 70
     0
 10
0.0
 20
0.0
 30
0.0
  3
A$C2BB81DB5
  1

  0
INSERT
  5
2ABD
  8
0
  2
*U149
 10
0.0
 20
0.0
 30
0.0
  0
ENDBLK
  5
2ABF
  8
0
  0
BLOCK
  8
0
  2
*U149
 70
     1
 10
0.0
 20
0.0
 30
0.0
  3
*U149
  1

  0
TEXT
  5
2C3D
  8
0
 62
     1
 10
0.0000007561829892
 20
4.7500030262081054
 30
0.0
 40
15.0
  1
31
  0
TEXT
  5
2C3E
  8
0
 62
     1
 10
29.2500007561829989
 20
14.0000030262080806
 30
0.0
 40
10.5
  1
1
  0
LINE
  5
2C3F
  8
0
 62
     1
 10
27.5000007561829989
 20
12.2500030262080895
 30
0.0
 11
34.5000007561829989
 21
12.2500030262080895
 31
0.0
  0
TEXT
  5
2C40
  8
0
 62
     1
 10
27.5000007561829882
 20
0.0000030262080912
 30
0.0
 40
10.5
  1
8
  0
TEXT
  5
2C41
  8
0
 62
     1
 10
38.8750007561829776
 20
4.7477530262080849
 30
0.0
 40
15.0045000000000002
  1
"
  0
ENDBLK
  5
2C43
  8
0
  0
BLOCK
  8
0
  2
*D150
 70
     1
 10
0.0
 20
0.0
 30
0.0
  3
*D150
  1

  0
LINE
  5
2C54
  8
0
 62
     1
 10
3594.7673429550818582
 20
-1767.9075580483020076
 30
0.0
 11
4326.4838540819619084
 21
-1767.9075580483020076
 31
0.0
  0
SOLID
  5
2C55
  8
0
 62
     1
 10
3594.7673429550818582
 20
-1765.4075580483020076
 30
0.0
 11
3594.7673429550818582
 21
-1770.4075580483020076
 31
0.0
 12
3579.7673429550818582
 22
-1767.9075580483020076
 32
0.0
 13
3579.7673429550818582
 23
-1767.9075580483020076
 33
0.0
  0
SOLID
  5
2C56
  8
0
 62
     1
 10
4326.4838540819619084
 20
-1765.4075580483020076
 30
0.0
 11
4326.4838540819619084
 21
-1770.4075580483020076
 31
0.0
 12
4341.4838540819619084
 22
-1767.9075580483020076
 32
0.0
 13
4341.4838540819619084
 23
-1767.9075580483020076
 33
0.0
  0
TEXT
  5
2CB2
  8
0
 62
     1
 10
3930.6300000000001091
 20
-1776.9600000000000364
 30
0.0
 40
15.0
  1
762
  0
POINT
  5
2C58
  8
DEFPOINTS
 62
     0
 10
3579.7673429550818582
 20
-2072.1850996713551467
 30
0.0
  0
POINT
  5
2C59
  8
DEFPOINTS
 62
     0
 10
4341.4838540819619084
 20
-2101.8521314068489119
 30
0.0
  0
POINT
  5
2C5A
  8
DEFPOINTS
 62
     0
 10
4341.4838540819619084
 20
-1767.9075580483020076
 30
0.0
  0
ENDBLK
  5
2AD8
  8
0
  0
BLOCK
  8
0
  2
*D151
 70
     1
 10
0.0
 20
0.0
 30
0.0
  3
*D151
  1

  0
LINE
  5
2BF6
  8
0
 62
     0
 10
4129.862995465300628
 20
-1803.5619254591820209
 30
0.0
 11
4064.8629954653010827
 21
-1803.5619254591829304
 31
0.0
  0
LINE
  5
2BF7
  8
0
 62
     0
 10
4064.8629954653010827
 20
-1803.5619254591829304
 30
0.0
 11
4050.8141070770561782
 21
-1808.8182297744460811
 31
0.0
  0
TEXT
  5
2CB3
  8
0
 62
     0
 10
4072.3600000000001273
 20
-1812.6099999999999
 30
0.0
 40
15.0
  1
R91.5
  0
LINE
  5
2BF9
  8
0
 62
     0
 10
3951.0669995205198575
 20
-1846.1379904128129965
 30
0.0
 11
4036.7652186888099095
 21
-1814.0745340897090045
 31
0.0
  0
SOLID
  5
2BFA
  8
0
 62
     0
 10
4049.9380563578470174
 20
-1806.4767483764051121
 30
0.0
 11
4051.6901577962671581
 21
-1811.1597111724850038
 31
0.0
 12
4036.7652186888099095
 22
-1814.0745340897090045
 32
0.0
 13
4036.7652186888099095
 23
-1814.0745340897090045
 33
0.0
  0
POINT
  5
2BFB
  8
DEFPOINTS
 62
     0
 10
4036.7652186888099095
 20
-1814.0745340897090045
 30
0.0
  0
POINT
  5
2BFC
  8
DEFPOINTS
 62
     0
 10
3951.0669995205198575
 20
-1846.1379904128129965
 30
0.0
  0
ENDBLK
  5
2AF0
  8
0
  0
BLOCK
  8
0
  2
*D152
 70
     1
 10
0.0
 20
0.0
 30
0.0
  3
*D152
  1

  0
LINE
  5
2BEF
  8
0
 62
     0
 10
4156.1137154508533058
 20
-1840.2907289235340613
 30
0.0
 11
4091.1137154508519416
 21
-1840.2907289235340613
 31
0.0
  0
LINE
  5
2BF0
  8
0
 62
     0
 10
4091.1137154508519416
 20
-1840.2907289235340613
 30
0.0
 11
4077.8592311095871992
 21
-1847.3134523872029149
 31
0.0
  0
TEXT
  5
2CB4
  8
0
 62
     0
 10
4098.6099999999987631
 20
-1849.3399999999999181
 30
0.0
 40
15.0
  1
R71.5
  0
LINE
  5
2BF2
  8
0
 62
     0
 10
4001.4250380749590477
 20
-1887.8111576943570071
 30
0.0
 11
4064.6047467683210925
 21
-1854.3361758508710864
 31
0.0
  0
SOLID
  5
2BF3
  8
0
 62
     0
 10
4076.6887771989750036
 20
-1845.1043716636579575
 30
0.0
 11
4079.0296850201980305
 21
-1849.5225331107460534
 31
0.0
 12
4064.6047467683210925
 22
-1854.3361758508710864
 32
0.0
 13
4064.6047467683210925
 23
-1854.3361758508710864
 33
0.0
  0
POINT
  5
2BF4
  8
DEFPOINTS
 62
     0
 10
4064.6047467683210925
 20
-1854.3361758508710864
 30
0.0
  0
POINT
  5
2BF5
  8
DEFPOINTS
 62
     0
 10
4001.4250380749590477
 20
-1887.8111576943570071
 30
0.0
  0
ENDBLK
  5
2B01
  8
0
  0
BLOCK
  8
0
  2
*D153
 70
     1
 10
0.0
 20
0.0
 30
0.0
  3
*D153
  1

  0
LINE
  5
2C5B
  8
0
 62
     1
 10
4413.0461687927490857
 20
-1909.8528097119319682
 30
0.0
 11
4413.0461687927490857
 21
-2293.678517187163834
 31
0.0
  0
SOLID
  5
2C5C
  8
0
 62
     1
 10
4410.5461687927490857
 20
-1909.8528097119319682
 30
0.0
 11
4415.5461687927490857
 21
-1909.8528097119319682
 31
0.0
 12
4413.0461687927490857
 22
-1894.8528097119319682
 32
0.0
 13
4413.0461687927490857
 23
-1894.8528097119319682
 33
0.0
  0
SOLID
  5
2C5D
  8
0
 62
     1
 10
4410.5461687927472667
 20
-2293.678517187163834
 30
0.0
 11
4415.5461687927481762
 21
-2293.678517187163834
 31
0.0
 12
4413.0461687927490857
 22
-2308.678517187163834
 32
0.0
 13
4413.0461687927490857
 23
-2308.678517187163834
 33
0.0
  0
TEXT
  5
2CB5
  8
0
 62
     1
 10
4365.5500000000001819
 20
-2179.3400000000001455
 30
0.0
 40
15.0
  1
414
  0
POINT
  5
2C5F
  8
DEFPOINTS
 62
     0
 10
4119.6248382090789164
 20
-1894.8528097119319682
 30
0.0
  0
POINT
  5
2C60
  8
DEFPOINTS
 62
     0
 10
3962.9515658468499169
 20
-2308.678517187163834
 30
0.0
  0
POINT
  5
2C61
  8
DEFPOINTS
 62
     0
 10
4413.0461687927490857
 20
-2308.678517187163834
 30
0.0
  0
ENDBLK
  5
2B1F
  8
0
  0
BLOCK
  8
0
  2
*U154
 70
     1
 10
0.0
 20
0.0
 30
0.0
  3
*U154
  1

  0
TEXT
  5
2B4A
  8
0
 62
     1
 10
9530.2828930278301414
 20
-977.7967622175207225
 30
0.0
 40
20.0
  1
zero reveal cut-out
  0
ENDBLK
  5
2B4B
  8
0
  0
BLOCK
  8
0
  2
*D155
 70
     1
 10
0.0
 20
0.0
 30
0.0
  3
*D155
  1

  0
LINE
  5
2B65
  8
0
 62
     0
 10
3460.9516008586069802
 20
1324.9201902567990601
 30
0.0
 11
4197.9516008586069802
 21
1324.9201902567990601
 31
0.0
  0
SOLID
  5
2B66
  8
0
 62
     0
 10
3460.9516008586069802
 20
1327.4201902567990601
 30
0.0
 11
3460.9516008586069802
 21
1322.4201902567990601
 31
0.0
 12
3445.9516008586069802
 22
1324.9201902567990601
 32
0.0
 13
3445.9516008586069802
 23
1324.9201902567990601
 33
0.0
  0
SOLID
  5
2B67
  8
0
 62
     0
 10
4197.9516008586069802
 20
1327.4201902567990601
 30
0.0
 11
4197.9516008586069802
 21
1322.4201902567990601
 31
0.0
 12
4212.9516008586069802
 22
1324.9201902567990601
 32
0.0
 13
4212.9516008586069802
 23
1324.9201902567990601
 33
0.0
  0
INSERT
  5
2B68
  8
0
  2
*U156
 10
0.0
 20
0.0
 30
0.0
  0
POINT
  5
2B69
  8
DEFPOINTS
 62
     0
 10
3445.9516008586069802
 20
1260.1735812630240616
 30
0.0
  0
POINT
  5
2B6A
  8
DEFPOINTS
 62
     0
 10
4212.9516008586069802
 20
1260.1735812630240616
 30
0.0
  0
POINT
  5
2B6B
  8
DEFPOINTS
 62
     0
 10
4212.9516008586069802
 20
1324.9201902567990601
 30
0.0
  0
ENDBLK
  5
2B6D
  8
0
  0
BLOCK
  8
0
  2
*U156
 70
     1
 10
0.0
 20
0.0
 30
0.0
  3
*U156
  1

  0
TEXT
  5
2C72
  8
0
 62
     1
 10
3809.4516008586069802
 20
1334.9201902567990601
 30
0.0
 40
15.0
  1
767
  0
ENDBLK
  5
2C74
  8
0
  0
BLOCK
  8
0
  2
*D157
 70
     1
 10
0.0
 20
0.0
 30
0.0
  3
*D157
  1

  0
LINE
  5
2C81
  8
0
 62
     1
 10
2134.4638372994891142
 20
-2164.5325545866630819
 30
0.0
 11
2219.6700493257530979
 21
-2221.5075616699041348
 31
0.0
  0
TEXT
  5
2CB6
  8
0
 62
     1
 10
2150.5599999999999454
 20
-2200.8499999999999091
 30
0.0
 40
15.0
  1
R90mm
  0
SOLID
  5
2C83
  8
0
 62
     1
 10
2221.0596836448557951
 20
-2219.4293613765808004
 30
0.0
 11
2218.2804150066490365
 21
-2223.5857619632270143
 31
0.0
 12
2232.139251085693104
 22
-2229.8453675845248654
 32
0.0
 13
2232.139251085693104
 23
-2229.8453675845248654
 33
0.0
  0
POINT
  5
2C84
  8
DEFPOINTS
 62
     0
 10
2232.139251085693104
 20
-2229.8453675845248654
 30
0.0
  0
POINT
  5
2C85
  8
DEFPOINTS
 62
     0
 10
2157.3240405260498846
 20
-2179.8185320968009364
 30
0.0
  0
ENDBLK
  5
2BA5
  8
0
  0
BLOCK
  8
0
  2
*D158
 70
     1
 10
0.0
 20
0.0
 30
0.0
  3
*D158
  1

  0
LINE
  5
2BD2
  8
0
 62
     0
 10
3513.6128056124880459
 20
-1847.5645115986098972
 30
0.0
 11
3513.6128056124880459
 21
-2293.564530291491792
 31
0.0
  0
SOLID
  5
2BD3
  8
0
 62
     0
 10
3511.1128056124871364
 20
-1847.5645115986098972
 30
0.0
 11
3516.1128056124871364
 21
-1847.5645115986098972
 31
0.0
 12
3513.6128056124880459
 22
-1832.5645115986110341
 32
0.0
 13
3513.6128056124880459
 23
-1832.5645115986110341
 33
0.0
  0
SOLID
  5
2BD4
  8
0
 62
     0
 10
3511.1128056124871364
 20
-2293.564530291491792
 30
0.0
 11
3516.1128056124871364
 21
-2293.564530291491792
 31
0.0
 12
3513.6128056124880459
 22
-2308.564530291491792
 32
0.0
 13
3513.6128056124880459
 23
-2308.564530291491792
 33
0.0
  0
INSERT
  5
2BD5
  8
0
  2
*U159
 10
0.0
 20
0.0
 30
0.0
  0
POINT
  5
2BD6
  8
DEFPOINTS
 62
     0
 10
3767.8929035300047872
 20
-1832.5645115986110341
 30
0.0
  0
POINT
  5
2BD7
  8
DEFPOINTS
 62
     0
 10
3774.0514791924538258
 20
-2308.564530291491792
 30
0.0
  0
POINT
  5
2BD8
  8
DEFPOINTS
 62
     0
 10
3513.6128056124880459
 20
-2308.564530291491792
 30
0.0
  0
ENDBLK
  5
2BDA
  8
0
  0
BLOCK
  8
0
  2
*U159
 70
     1
 10
0.0
 20
0.0
 30
0.0
  3
*U159
  1

  0
TEXT
  5
2C9F
  8
0
 62
     1
 10
3503.6128056124871364
 20
-2090.5645209450508446
 30
0.0
 40
15.0
  1
476
 50
90.0
  0
ENDBLK
  5
2CA1
  8
0
  0
BLOCK
  8
0
  2
*U160
 70
     1
 10
0.0
 20
0.0
 30
0.0
  3
*U160
  1

  0
TEXT
  5
2C0D
  8
0
 62
     1
 10
1848.2992325843429171
 20
1370.9915252086620967
 30
0.0
 40
15.0
  1
30
  0
TEXT
  5
2C0E
  8
0
 62
     1
 10
1880.2992325843429171
 20
1380.2415252086620967
 30
0.0
 40
10.5
  1
1
  0
LINE
  5
2C0F
  8
0
 62
     1
 10
1878.549232584344054
 20
1378.4915252086620967
 30
0.0
 11
1885.549232584344054
 21
1378.4915252086620967
 31
0.0
  0
TEXT
  5
2C10
  8
0
 62
     1
 10
1878.549232584344054
 20
1366.2415252086620967
 30
0.0
 40
10.5
  1
8
  0
TEXT
  5
2C11
  8
0
 62
     1
 10
1889.924232584344054
 20
1370.9892752086620931
 30
0.0
 40
15.0045000000000002
  1
"
  0
ENDBLK
  5
2C13
  8
0
  0
BLOCK
  8
0
  2
*U161
 70
     1
 10
0.0
 20
0.0
 30
0.0
  3
*U161
  1

  0
TEXT
  5
2C15
  8
0
 62
     1
 10
1365.1538588833700487
 20
1150.6796802164510609
 30
0.0
 40
15.0
  1
16
 50
89.9999999999999858
  0
TEXT
  5
2C16
  8
0
 62
     1
 10
1355.9038588833700487
 20
1179.9296802164510609
 30
0.0
 40
10.5
  1
1
 50
89.9999999999999858
  0
LINE
  5
2C17
  8
0
 62
     1
 10
1357.6538588833700487
 20
1178.1796802164510609
 30
0.0
 11
1357.6538588833700487
 21
1185.1796802164510609
 31
0.0
  0
TEXT
  5
2C18
  8
0
 62
     1
 10
1369.9038588833700487
 20
1178.1796802164510609
 30
0.0
 40
10.5
  1
8
 50
89.9999999999999858
  0
TEXT
  5
2C19
  8
0
 62
     1
 10
1365.1561088833700524
 20
1189.5546802164510609
 30
0.0
 40
15.0045000000000002
  1
"
 50
89.9999999999999858
  0
ENDBLK
  5
2C1B
  8
0
  0
BLOCK
  8
0
  2
*U162
 70
     1
 10
0.0
 20
0.0
 30
0.0
  3
*U162
  1

  0
TEXT
  5
2C1D
  8
0
 62
     1
 10
3379.3350356724731682
 20
1092.3054473669531035
 30
0.0
 40
15.0
  1
17"
 50
89.9999999999999858
  0
ENDBLK
  5
2C1F
  8
0
  0
BLOCK
  8
0
  2
*U163
 70
     1
 10
0.0
 20
0.0
 30
0.0
  3
*U163
  1

  0
TEXT
  5
2C21
  8
0
 62
     1
 10
3864.4194902607491713
 20
1343.5196816331379068
 30
0.0
 40
15.0
  1
30
  0
TEXT
  5
2C22
  8
0
 62
     1
 10
3896.4194902607491713
 20
1352.7696816331379068
 30
0.0
 40
10.5
  1
1
  0
LINE
  5
2C23
  8
0
 62
     1
 10
3894.6694902607491713
 20
1351.0196816331379068
 30
0.0
 11
3901.6694902607491713
 21
1351.0196816331379068
 31
0.0
  0
TEXT
  5
2C24
  8
0
 62
     1
 10
3894.6694902607491713
 20
1338.7696816331379068
 30
0.0
 40
10.5
  1
4
  0
TEXT
  5
2C25
  8
0
 62
     1
 10
3906.0444902607491713
 20
1343.5174316331379032
 30
0.0
 40
15.0045000000000002
  1
"
  0
ENDBLK
  5
2C27
  8
0
  0
BLOCK
  8
0
  2
*U164
 70
     1
 10
0.0
 20
0.0
 30
0.0
  3
*U164
  1

  0
TEXT
  5
2C29
  8
0
 62
     1
 10
3981.2390404837879032
 20
-137.1587727085342863
 30
0.0
 40
15.0
  1
31
  0
TEXT
  5
2C2A
  8
0
 62
     1
 10
4010.4890404837879032
 20
-127.9087727085343005
 30
0.0
 40
10.5
  1
1
  0
LINE
  5
2C2B
  8
0
 62
     1
 10
4008.7390404837879032
 20
-129.6587727085342863
 30
0.0
 11
4015.7390404837869937
 21
-129.6587727085342863
 31
0.0
  0
TEXT
  5
2C2C
  8
0
 62
     1
 10
4008.7390404837879032
 20
-141.9087727085342863
 30
0.0
 40
10.5
  1
8
  0
TEXT
  5
2C2D
  8
0
 62
     1
 10
4020.1140404837879032
 20
-137.1610227085342899
 30
0.0
 40
15.0045000000000002
  1
"
  0
ENDBLK
  5
2C2F
  8
0
  0
BLOCK
  8
0
  2
*U165
 70
     1
 10
0.0
 20
0.0
 30
0.0
  3
*U165
  1

  0
TEXT
  5
2C31
  8
0
 62
     1
 10
3478.9935998603041298
 20
-384.3959344016320756
 30
0.0
 40
15.0
  1
16
 50
89.9999999999999858
  0
TEXT
  5
2C32
  8
0
 62
     1
 10
3469.7435998603032203
 20
-355.1459344016320756
 30
0.0
 40
10.5
  1
1
 50
89.9999999999999858
  0
LINE
  5
2C33
  8
0
 62
     1
 10
3471.4935998603032203
 20
-356.8959344016320756
 30
0.0
 11
3471.4935998603032203
 21
-349.8959344016320756
 31
0.0
  0
TEXT
  5
2C34
  8
0
 62
     1
 10
3483.7435998603041298
 20
-356.8959344016320756
 30
0.0
 40
10.5
  1
8
 50
89.9999999999999858
  0
TEXT
  5
2C35
  8
0
 62
     1
 10
3478.9958498603041335
 20
-345.5209344016320756
 30
0.0
 40
15.0045000000000002
  1
"
 50
89.9999999999999858
  0
ENDBLK
  5
2C37
  8
0
  0
BLOCK
  8
0
  2
*U166
 70
     1
 10
0.0
 20
0.0
 30
0.0
  3
*U166
  1

  0
TEXT
  5
2C39
  8
0
 62
     1
 10
1721.8216384836468933
 20
-131.5846986915940136
 30
0.0
 40
15.0
  1
24"
  0
ENDBLK
  5
2C3B
  8
0
  0
BLOCK
  8
0
  2
*U167
 70
     1
 10
0.0
 20
0.0
 30
0.0
  3
*U167
  1

  0
TEXT
  5
2C45
  8
0
 62
     1
 10
1905.4658420260770981
 20
-1789.1499141715169117
 30
0.0
 40
15.0
  1
30
  0
TEXT
  5
2C46
  8
0
 62
     1
 10
1937.4658420260770981
 20
-1779.8999141715169117
 30
0.0
 40
10.5
  1
1
  0
LINE
  5
2C47
  8
0
 62
     1
 10
1935.7158420260770981
 20
-1781.6499141715160022
 30
0.0
 11
1942.7158420260770981
 21
-1781.6499141715160022
 31
0.0
  0
TEXT
  5
2C48
  8
0
 62
     1
 10
1935.7158420260770981
 20
-1793.8999141715169117
 30
0.0
 40
10.5
  1
4
  0
TEXT
  5
2C49
  8
0
 62
     1
 10
1947.0908420260759613
 20
-1789.1521641715169153
 30
0.0
 40
15.0045000000000002
  1
"
  0
ENDBLK
  5
2C4B
  8
0
  0
BLOCK
  8
0
  2
*U168
 70
     1
 10
0.0
 20
0.0
 30
0.0
  3
*U168
  1

  0
TEXT
  5
2C4D
  8
0
 62
     1
 10
1409.9315808095780085
 20
-2018.2264847191179342
 30
0.0
 40
15.0
  1
16
 50
89.9999999999999858
  0
TEXT
  5
2C4E
  8
0
 62
     1
 10
1400.6815808095780085
 20
-1990.7264847191170247
 30
0.0
 40
10.5
  1
6
 50
89.9999999999999858
  0
LINE
  5
2C4F
  8
0
 62
     1
 10
1402.4315808095780085
 20
-1990.7264847191170247
 30
0.0
 11
1402.4315808095780085
 21
-1983.7264847191170247
 31
0.0
  0
TEXT
  5
2C50
  8
0
 62
     1
 10
1414.6815808095780085
 20
-1990.7264847191170247
 30
0.0
 40
10.5
  1
8
 50
89.9999999999999858
  0
TEXT
  5
2C51
  8
0
 62
     1
 10
1409.9338308095780121
 20
-1979.3514847191170247
 30
0.0
 40
15.0045000000000002
  1
"
 50
89.9999999999999858
  0
ENDBLK
  5
2C53
  8
0
  0
BLOCK
  8
0
  2
*U169
 70
     1
 10
0.0
 20
0.0
 30
0.0
  3
*U169
  1

  0
TEXT
  5
2C63
  8
0
 62
     1
 10
4004.1442724769981396
 20
-1732.5042153557581059
 30
0.0
 40
15.0
  1
30"
  0
ENDBLK
  5
2C65
  8
0
  0
BLOCK
  8
0
  2
*U170
 70
     1
 10
0.0
 20
0.0
 30
0.0
  3
*U170
  1

  0
TEXT
  5
2C8F
  8
0
 62
     1
 10
19.7499947357719101
 20
0.0000003105806063
 30
0.0
 40
15.0
  1
16
 50
89.9999999999999858
  0
TEXT
  5
2C90
  8
0
 62
     1
 10
10.4999947357719208
 20
29.2500003105806101
 30
0.0
 40
10.5
  1
1
 50
89.9999999999999858
  0
LINE
  5
2C91
  8
0
 62
     1
 10
12.2499947357719208
 20
27.5000003105806101
 30
0.0
 11
12.2499947357719208
 21
34.5000003105806101
 31
0.0
  0
TEXT
  5
2C92
  8
0
 62
     1
 10
24.4999947357719314
 20
27.5000003105806101
 30
0.0
 40
10.5
  1
4
 50
89.9999999999999858
  0
TEXT
  5
2C93
  8
0
 62
     1
 10
19.7522447357719209
 20
38.875000310580603
 30
0.0
 40
15.0045000000000002
  1
"
 50
89.9999999999999858
  0
ENDBLK
  5
2C95
  8
0
  0
BLOCK
  8
0
  2
*U171
 70
     1
 10
0.0
 20
0.0
 30
0.0
  3
*U171
  1

  0
TEXT
  5
2C97
  8
0
 62
     1
 10
4392.4993780516288098
 20
-2119.8263321188760528
 30
0.0
 40
15.0
  1
16
 50
89.9999999999999858
  0
TEXT
  5
2C98
  8
0
 62
     1
 10
4383.2493780516306288
 20
-2090.5763321188760528
 30
0.0
 40
10.5
  1
1
 50
89.9999999999999858
  0
LINE
  5
2C99
  8
0
 62
     1
 10
4384.9993780516297193
 20
-2092.3263321188760528
 30
0.0
 11
4384.9993780516297193
 21
-2085.3263321188760528
 31
0.0
  0
TEXT
  5
2C9A
  8
0
 62
     1
 10
4397.2493780516306288
 20
-2092.3263321188760528
 30
0.0
 40
10.5
  1
4
 50
89.9999999999999858
  0
TEXT
  5
2C9B
  8
0
 62
     1
 10
4392.5016280516301777
 20
-2080.9513321188760528
 30
0.0
 40
15.0045000000000002
  1
"
 50
89.9999999999999858
  0
ENDBLK
  5
2C9D
  8
0
  0
BLOCK
  8
0
  2
*U172
 70
     1
 10
0.0
 20
0.0
 30
0.0
  3
*U172
  1

  0
TEXT
  5
2CA3
  8
0
 62
     1
 10
19.7499981917644511
 20
-0.0000001132930374
 30
0.0
 40
15.0
  1
18
 50
89.9999999999999858
  0
TEXT
  5
2CA4
  8
0
 62
     1
 10
10.4999981917644707
 20
27.4999998867069699
 30
0.0
 40
10.5
  1
6
 50
89.9999999999999858
  0
LINE
  5
2CA5
  8
0
 62
     1
 10
12.2499981917644707
 20
27.4999998867069699
 30
0.0
 11
12.2499981917644796
 21
34.4999998867069735
 31
0.0
  0
TEXT
  5
2CA6
  8
0
 62
     1
 10
24.4999981917644796
 20
27.4999998867069593
 30
0.0
 40
10.5
  1
8
 50
89.9999999999999858
  0
TEXT
  5
2CA7
  8
0
 62
     1
 10
19.7522481917644797
 20
38.8749998867069593
 30
0.0
 40
15.0045000000000002
  1
"
 50
89.9999999999999858
  0
ENDBLK
  5
2CA9
  8
0
  0
BLOCK
  8
0
  2
*U173
 70
     1
 10
0.0
 20
0.0
 30
0.0
  3
*U173
  1

  0
TEXT
  5
2CAB
  8
0
 62
     1
 10
3487.5580414338469382
 20
-2031.7050822366391003
 30
0.0
 40
15.0
  1
18
 50
89.9999999999999858
  0
TEXT
  5
2CAC
  8
0
 62
     1
 10
3478.3080414338478477
 20
-2004.2050822366391003
 30
0.0
 40
10.5
  1
6
 50
89.9999999999999858
  0
LINE
  5
2CAD
  8
0
 62
     1
 10
3480.0580414338478477
 20
-2004.2050822366391003
 30
0.0
 11
3480.0580414338478477
 21
-1997.2050822366391003
 31
0.0
  0
TEXT
  5
2CAE
  8
0
 62
     1
 10
3492.3080414338469382
 20
-2004.2050822366391003
 30
0.0
 40
10.5
  1
8
 50
89.9999999999999858
  0
TEXT
  5
2CAF
  8
0
 62
     1
 10
3487.5602914338469418
 20
-1992.8300822366391003
 30
0.0
 40
15.0045000000000002
  1
"
 50
89.9999999999999858
  0
ENDBLK
  5
2CB1
  8
0
  0
BLOCK
  8
0
  2
*D174
 70
     1
 10
0.0
 20
0.0
 30
0.0
  3
*D174
  1

  0
LINE
  5
2EA6
  8
0
 62
     1
 10
2170.6523424326510394
 20
-2188.8511551709730156
 30
0.0
 11
2170.8323424326508757
 21
-2188.8511551709739251
 31
0.0
  0
LINE
  5
2EA7
  8
0
 62
     1
 10
2170.8323424326508757
 20
-2188.8511551709739251
 30
0.0
 11
2231.9896206645730672
 21
-2229.7453139135500351
 31
0.0
  0
TEXT
  8
0
  40
0.18
  5
2EF5
  62
1
  72
0
  71
0
 10
2169.47
 20
-2189.17
 30
0.00000
  1
R90.0000mm
  0
SOLID
  5
2EA9
  8
0
 62
     1
 10
2232.0062962764018266
 20
-2229.7203755100299531
 30
0.0
 11
2231.972945052743853
 21
-2229.770252317070117
 31
0.0
 12
2232.1392510856921945
 22
-2229.8453675845248654
 32
0.0
 13
2232.1392510856921945
 23
-2229.8453675845248654
 33
0.0
  0
POINT
  5
2EAA
  8
DEFPOINTS
 62
     0
 10
2232.1392510856921945
 20
-2229.8453675845248654
 30
0.0
  0
POINT
  5
2EAB
  8
DEFPOINTS
 62
     0
 10
2157.3240405260498846
 20
-2179.8185320968009364
 30
0.0
  0
ENDBLK
  5
2EA5
  8
0
  0
BLOCK
  8
0
  2
*U175
 70
     1
 10
0.0
 20
0.0
 30
0.0
  3
*U175
  1

  0
TEXT
  5
2EF2
  8
0
 10
1537.5805884728579258
 20
-2691.8881970051947974
 30
0.0
 40
20.0
  1
TZ L360.55 VENICE
  0
ENDBLK
  5
2EF4
  8
0
  0
ENDSEC
  0
SECTION
  2
ENTITIES
  0
LINE
  5
C61
  8
0
 10
1153.5290690654539958
 20
-1632.4379440193590654
 30
0.0
 11
2853.5290690654551327
 21
-1632.4379440193590654
 31
0.0
  0
LINE
  5
C62
  8
0
 10
1153.5290690654539958
 20
-1602.4379440193590654
 30
0.0
 11
2853.5290690654551327
 21
-1602.4379440193590654
 31
0.0
  0
LINE
  5
C63
  8
0
 10
2853.5290690654551327
 20
-1632.4379440193590654
 30
0.0
 11
2853.5290690654551327
 21
-2892.4379440193602022
 31
0.0
  0
LINE
  5
C64
  8
0
 10
2883.5290690654551327
 20
-1632.4379440193590654
 30
0.0
 11
2883.5290690654551327
 21
-2892.4379440193602022
 31
0.0
  0
LINE
  5
C65
  8
0
 10
2853.5290690654551327
 20
-2892.4379440193602022
 30
0.0
 11
1153.5290690654539958
 21
-2892.4379440193602022
 31
0.0
  0
LINE
  5
C66
  8
0
 10
2853.5290690654551327
 20
-2922.4379440193602022
 30
0.0
 11
1153.5290690654539958
 21
-2922.4379440193602022
 31
0.0
  0
LINE
  5
C67
  8
0
 10
1153.5290690654539958
 20
-2892.4379440193602022
 30
0.0
 11
1153.5290690654539958
 21
-1632.4379440193590654
 31
0.0
  0
LINE
  5
C68
  8
0
 10
1123.5290690654539958
 20
-2892.4379440193602022
 30
0.0
 11
1123.5290690654539958
 21
-1632.4379440193590654
 31
0.0
  0
LINE
  5
C69
  8
0
 10
1123.5290690654539958
 20
-1632.4379440193590654
 30
0.0
 11
1123.5290690654539958
 21
-1602.4379440193590654
 31
0.0
  0
LINE
  5
C6A
  8
0
 10
1153.5290690654539958
 20
-1602.4379440193590654
 30
0.0
 11
1123.5290690654539958
 21
-1602.4379440193590654
 31
0.0
  0
LINE
  5
C6B
  8
0
 10
2883.5290690654551327
 20
-1632.4379440193590654
 30
0.0
 11
2883.5290690654560422
 21
-1602.4379440193590654
 31
0.0
  0
LINE
  5
C6C
  8
0
 10
2853.5290690654551327
 20
-1602.4379440193590654
 30
0.0
 11
2883.5290690654560422
 21
-1602.4379440193590654
 31
0.0
  0
LINE
  5
C6D
  8
0
 10
2853.5290690654551327
 20
-2922.4379440193602022
 30
0.0
 11
2883.5290690654560422
 21
-2922.4379440193602022
 31
0.0
  0
LINE
  5
C6E
  8
0
 10
2883.5290690654551327
 20
-2892.4379440193602022
 30
0.0
 11
2883.5290690654560422
 21
-2922.4379440193602022
 31
0.0
  0
LINE
  5
C6F
  8
0
 10
1153.5290690654539958
 20
-2922.4379440193602022
 30
0.0
 11
1123.5290690654539958
 21
-2922.4379440193602022
 31
0.0
  0
LINE
  5
C70
  8
0
 10
1123.5290690654539958
 20
-2892.4379440193602022
 30
0.0
 11
1123.5290690654539958
 21
-2922.4379440193602022
 31
0.0
  0
LINE
  5
C71
  8
0
 10
1153.5290690654539958
 20
-2652.9386132027789245
 30
0.0
 11
1456.0794986645319113
 21
-2652.9386132027789245
 31
0.0
  0
LINE
  5
C72
  8
0
 10
1456.0794986645319113
 20
-2652.9386132027789245
 30
0.0
 11
1456.0794986645319113
 21
-2892.4379440193602022
 31
0.0
  0
LINE
  5
C73
  8
0
 10
1456.0794986645319113
 20
-2807.4331171567018828
 30
0.0
 11
2197.7834875026551344
 21
-2807.4331171567018828
 31
0.0
  0
LINE
  5
C74
  8
0
 10
2197.7834875026551344
 20
-2807.4331171567018828
 30
0.0
 11
2853.5290690654551327
 21
-2807.4331171567018828
 31
0.0
  0
LINE
  5
C75
  8
0
 10
1726.4525615501750053
 20
-2807.4331171567018828
 30
0.0
 11
1726.4525615501750053
 21
-2892.4379440193602022
 31
0.0
  0
LINE
  5
C76
  8
0
 10
2340.1160955153341092
 20
-2807.4331171567018828
 30
0.0
 11
2340.1160955153331997
 21
-2892.4379440193602022
 31
0.0
  0
LINE
  5
C77
  8
0
 10
2610.7813725135238201
 20
-2807.4331171567018828
 30
0.0
 11
2610.7813725135229106
 21
-2892.4379440193602022
 31
0.0
  0
LINE
  5
C78
  8
0
 10
1456.0794986645319113
 20
-2652.9386132027789245
 30
0.0
 11
2853.5290690654551327
 21
-2652.9386132027789245
 31
0.0
  0
LINE
  5
C79
  8
0
 10
2237.7577752303068337
 20
-2652.9386132027789245
 30
0.0
 11
2237.7577752303081979
 21
-2807.4331171567018828
 31
0.0
  0
INSERT
  5
C7A
  8
0
  2
*U76
 10
0.0
 20
0.0
 30
0.0
  0
INSERT
  5
C7C
  8
0
  2
*U78
 10
0.0
 20
0.0
 30
0.0
  0
INSERT
  5
C7D
  8
0
  2
*U79
 10
0.0
 20
0.0
 30
0.0
  0
INSERT
  5
C7E
  8
0
  2
*U80
 10
0.0
 20
0.0
 30
0.0
  0
INSERT
  5
C7F
  8
0
  2
*U81
 10
0.0
 20
0.0
 30
0.0
  0
INSERT
  5
C80
  8
0
  2
*U82
 10
0.0
 20
0.0
 30
0.0
  0
LINE
  5
D30
  8
0
 62
     1
 10
1570.3240405260480657
 20
-1845.8185320968000269
 30
0.0
 11
2157.3240405260489752
 21
-1845.8185320968000269
 31
0.0
  0
LINE
  5
D32
  8
0
 62
     1
 10
2247.3240405260489752
 20
-1935.8185320968000269
 30
0.0
 11
2247.3240405260480657
 21
-2179.8185320968000269
 31
0.0
  0
LINE
  5
D38
  8
0
 62
     1
 10
2157.3240405260480657
 20
-2269.8185320968000269
 30
0.0
 11
1570.3240405260480657
 21
-2269.8185320968000269
 31
0.0
  0
LINE
  5
D3A
  8
0
 62
     1
 10
1480.3240405260480657
 20
-2179.8185320968000269
 30
0.0
 11
1480.3240405260480657
 21
-1935.8185320967988901
 31
0.0
  0
DIMENSION
  5
D87
  8
0
 62
     1
  2
*D122
 10
2247.3240405260480657
 20
-1820.2196501409689517
 30
0.0
 11
1863.8240405260480657
 21
-1802.7196501409689517
 31
0.0
 13
1480.3240405260480657
 23
-1857.3185320968000269
 33
0.0
 14
2247.3240405260480657
 24
-1857.3185320968000269
 34
0.0
1001
ACAD
1000
DSTYLE
1002
{
1070
   178
1070
     1
1002
}
  0
DIMENSION
  5
DAF
  8
0
 62
     1
  2
*D124
 10
1430.8915712680900469
 20
-2269.8185320968000269
 30
0.0
 11
1413.3915712680900469
 21
-2057.8185320968000269
 31
0.0
 13
1491.8240405260460193
 23
-1845.8185320968000269
 33
0.0
 14
1491.8240405260460193
 24
-2269.8185320968000269
 34
0.0
 50
90.0
1001
ACAD
1000
DSTYLE
1002
{
1070
   178
1070
     1
1002
}
  0
INSERT
  5
2AC7
  8
0
  2
*U167
 10
0.0
 20
0.0
 30
0.0
  0
INSERT
  5
2ACD
  8
0
  2
*U168
 10
0.0
 20
0.0
 30
0.0
  0
ARC
  5
2B97
  8
0
 62
     1
 10
2157.3240405260480657
 20
-2179.8185320968000269
 30
0.0
 40
90.0
 50
270.0
 51
0.0
  0
ARC
  5
2B9A
  8
0
 62
     1
 10
2157.3240405260489752
 20
-1935.8185320968000269
 30
0.0
 40
90.0
 50
359.9999999999997726
 51
90.0
  0
ARC
  5
2B9B
  8
0
 62
     1
 10
1570.3240405260480657
 20
-1935.8185320967988901
 30
0.0
 40
90.0
 50
90.0
 51
180.0
  0
ARC
  5
2B9C
  8
0
 62
     1
 10
1570.3240405260480657
 20
-2179.8185320968000269
 30
0.0
 40
90.0
 50
180.0
 51
270.0
  0
DIMENSION
  5
2B9D
  8
0
  2
*D174
 10
2157.3240405260498846
 20
-2179.8185320968009364
 30
0.0
 11
2169.8273424326512213
 21
-2188.8511551709730156
 31
0.0
 70
   132
 15
2232.1392510856921945
 25
-2229.8453675845248654
 35
0.0
 40
0.0
1001
ACAD
1000
DSTYLE
1002
{
1070
   287
1070
     3
1070
   287
1070
     3
1070
     3
1000
mm
1070
   176
1070
     1
1070
   178
1070
     1
1070
   274
1070
     2
1070
   279
1070
     0
1070
   284
1070
     0
1070
   285
1070
     0
1070
   286
1070
     0
1070
   288
1070
     1
1002
}
  0
LINE
  5
2BA6
  8
0
 62
     1
 10
2247.3240405260480657
 20
-2057.8185320968000269
 30
0.0
 11
2321.7084068818639935
 21
-2057.8185320968000269
 31
0.0
  0
POLYLINE
  5
2BA7
  8
0
 62
     1
 66
     1
 10
0.0
 20
0.0
 30
0.0
 70
     1
  0
VERTEX
  5
2EAC
  8
0
 62
     1
 10
2321.7084068818639935
 20
-2067.3181846740949368
 30
0.0
  0
VERTEX
  5
2EAD
  8
0
 62
     1
 10
2335.7662559873419923
 20
-2056.9703852094958165
 30
0.0
  0
VERTEX
  5
2EAE
  8
0
 62
     1
 10
2321.7084068818639935
 20
-2047.7289721667509639
 30
0.0
  0
SEQEND
  5
2EAF
  8
0
 62
     1
  0
INSERT
  5
2BA8
  8
0
  2
*U154
 10
-7182.4530040625822949
 20
-1083.5844427037450259
 30
0.0
  0
INSERT
  5
2E90
  8
0
  2
*U175
 10
0.0
 20
0.0
 30
0.0
  0
ENDSEC
  0
EOF
